Вымогательство / Extortion (Филипп Волкен) [2017, боевик, триллер, драма, криминал, приключения, BDRemux 1080р | D, L | iTunes]

Ответить на тему
Статистика раздачи [Обновить пиров]
Размер:  26,99 GB   |    Зарегистрирован:  2 месяца 3 дня   |    .torrent скачан:  2 раза
Сидов:  11  [  0 KB/s  ]   Подробная статистика пиров
 
   
 
 
Автор Сообщение

Skorp10n ®

Онлайн

 Активный раздающий 1 Активный раздающий 2
 Активный релизер 1000 Активный релизер 1500 Активный релизер 2000 Активный релизер 250 Активный релизер 3000 Активный релизер 500 Активный релизер 5000 Активный релизер Фильмов (1000) Активный релизер Фильмов (300) Активный релизер Фильмов (600) Активный Форумчанин 1 Активный Форумчанин 2 Активный Форумчанин 3 Активный Форумчанин 4 Друг трекера Карма 1000 Карма 1500 Карма 3000 Карма 500 Меценат Ни дня без новостей Орденосец 1 степени Орденосец 2 степени Орденосец 3 степени Почетный орденосец Почетный репортер С Новым 2016 Годом! С Новым 2017 Годом! С Новым 2018 Годом! С Новым 2019 Годом! Супер Мега Контер Квейк ТОП-10

Пол: Мужской

Стаж: 4 года

Наличие запрета:

Сообщений: 11509

Откуда: Free-Tor.com

Отдача: не определено

Загрузка: не определено

Нажми

Создавать темы 15-Июн-2019 12:44

[Цитировать]

Информация о фильме- Название: Вымогательство
Оригинальное название: Extortion
Год выхода: 2017
Жанр: Боевик, триллер, драма, криминал, приключения
Режиссер: Филипп Волкен
В ролях: Эйон Бэйли, Бетани Джой Ленц, Баркхад Абди, Дэнни Гловер, Тим Гриффин, Джек Уоллес, Элид Барриос-О фильме:-Счастливая семья отправляется отдыхать на Карибы, но вскоре их путешествие прерывается трагедией. Герою придётся бежать наперегонки со временем, чтобы спасти своих жену и сына.- -Страна: США, Филиппины, Пуэрто Рико
Студия: Filmmuse Productions, Producer Capital Fund
Продолжительность: 01:49:32
Перевод: Дублированный (iTunes), многоголосый закадровый ("Paradox" & Omskbird Records")-Файл-Качество: BDRemux 1080р | D, L | iTunes
Видео: AVC/H.264, 1920x1080, 32,0 Мbps, 23.976 fps
Звук:
Аудио 1: AC3, 6 ch, 384 Kbps - русский (DUB, iTunes)
Аудио 2: AC3, 6 ch, 384 Kbps - русский (MVO, "Paradox" & Omskbird Records")
Аудио 3: DTS-HD MA, 6 ch, 3422 Kbps - английский
Субтитры: Русские (полные), Английские (полные, SDH)-

Mediainfo

-Общее
Уникальный идентификатор : 102547048935229615324519629143862206044 (0x4D25D7DD9CD489A04CD2FB5C10C8DE5C)
Полное имя : Extortion.2017.BDRemux.W.mkv
Формат : Matroska
Версия формата : Version 4
Размер файла : 27,0 Гбайт
Продолжительность : 1 ч. 49 м.
Режим общего битрейта : Переменный
Общий поток : 35,3 Мбит/сек
Название фильма : Extortion.2017.BDRemux.W
Дата кодирования : UTC 2019-05-12 19:22:11
Программа кодирования : mkvmerge v23.0.0 ('The Bride Said No') 64-bit
Библиотека кодирования : libebml v1.3.6 + libmatroska v1.4.9
Видео
Идентификатор : 1
Формат : AVC
Формат/Информация : Advanced Video Codec
Профиль формата : [email protected]
Настройки формата : CABAC / 3 Ref Frames
Параметр CABAC формата : Да
Параметр RefFrames формата : 3 кадра
Идентификатор кодека : V_MPEG4/ISO/AVC
Продолжительность : 1 ч. 49 м.
Вид битрейта : Переменный
Битрейт : 32,0 Мбит/сек
Ширина : 1920 пикселей
Высота : 1080 пикселей
Соотношение сторон : 16:9
Режим частоты кадров : Постоянный
Частота кадров : 23,976 (24000/1001) кадра/сек
Цветовое пространство : YUV
Субдискретизация насыщенности : 4:2:0
Битовая глубина : 8 бит
Тип развёртки : Прогрессивная
Бит/(Пиксели*Кадры) : 0.644
Размер потока : 23,8 Гбайт (88%)
Библиотека кодирования : x264 core 148 r2597 e86f3a1
Настройки программы : cabac=1 / ref=4 / deblock=1:-1:-1 / analyse=0x3:0x133 / me=umh / subme=10 / psy=1 / psy_rd=1.00:0.15 / mixed_ref=1 / me_range=24 / chroma_me=1 / trellis=2 / 8x8dct=1 / cqm=0 / deadzone=21,11 / fast_pskip=1 / chroma_qp_offset=-3 / threads=12 / lookahead_threads=1 / sliced_threads=0 / slices=4 / nr=0 / decimate=1 / interlaced=0 / bluray_compat=1 / constrained_intra=0 / bframes=3 / b_pyramid=1 / b_adapt=2 / b_bias=0 / direct=3 / weightb=1 / open_gop=1 / weightp=1 / keyint=24 / keyint_min=1 / scenecut=40 / intra_refresh=0 / rc_lookahead=24 / rc=2pass / mbtree=1 / bitrate=32000 / ratetol=1.0 / qcomp=0.60 / qpmin=0 / qpmax=69 / qpstep=4 / cplxblur=20.0 / qblur=0.5 / vbv_maxrate=32000 / vbv_bufsize=30000 / nal_hrd=vbr / filler=0 / ip_ratio=1.40 / aq=1:1.00
Язык : English
Default : Да
Forced : Нет
Цветовой диапазон : Limited
Основные цвета : BT.709
Характеристики трансфера : BT.709
Коэффициенты матрицы : BT.709
Аудио #1
Идентификатор : 2
Формат : AC-3
Формат/Информация : Audio Coding 3
Коммерческое название : Dolby Digital
Идентификатор кодека : A_AC3
Продолжительность : 1 ч. 49 м.
Вид битрейта : Постоянный
Битрейт : 384 Кбит/сек
Каналы : 6 каналов
ChannelLayout : L R C LFE Ls Rs
Частота : 48,0 КГц
Частота кадров : 31,250 кадров/сек (1536 SPF)
Битовая глубина : 16 бит
Метод сжатия : С потерями
Размер потока : 301 Мбайт (1%)
Заголовок : DUB | iTunes
Язык : Russian
ServiceKind : Complete Main
Default : Да
Forced : Нет
Аудио #2
Идентификатор : 3
Формат : AC-3
Формат/Информация : Audio Coding 3
Коммерческое название : Dolby Digital
Идентификатор кодека : A_AC3
Продолжительность : 1 ч. 49 м.
Вид битрейта : Постоянный
Битрейт : 384 Кбит/сек
Каналы : 6 каналов
ChannelLayout : L R C LFE Ls Rs
Частота : 48,0 КГц
Частота кадров : 31,250 кадров/сек (1536 SPF)
Битовая глубина : 16 бит
Метод сжатия : С потерями
Размер потока : 301 Мбайт (1%)
Заголовок : MVO ("Paradox" & Omskbird records)
Язык : Russian
ServiceKind : Complete Main
Default : Нет
Forced : Нет
Аудио #3
Идентификатор : 4
Формат : DTS XLL
Формат/Информация : Digital Theater Systems
Коммерческое название : DTS-HD Master Audio
Идентификатор кодека : A_DTS
Продолжительность : 1 ч. 49 м.
Вид битрейта : Переменный
Битрейт : 3422 Кбит/сек
Каналы : 6 каналов
ChannelLayout : C L R Ls Rs LFE
Частота : 48,0 КГц
Частота кадров : 93,750 кадра/сек (512 SPF)
Битовая глубина : 24 бит
Метод сжатия : Без потерь
Размер потока : 2,62 Гбайт (10%)
Язык : English
Default : Нет
Forced : Нет
Текст #1
Идентификатор : 5
Формат : UTF-8
Идентификатор кодека : S_TEXT/UTF8
Идентификатор кодека/Информация : UTF-8 Plain Text
Продолжительность : 1 ч. 40 м.
Битрейт : 62 бит/сек
ElementCount : 987
Размер потока : 46,2 Кбайт (0%)
Заголовок : Full
Язык : Russian
Default : Нет
Forced : Нет
Текст #2
Идентификатор : 6
Формат : UTF-8
Идентификатор кодека : S_TEXT/UTF8
Идентификатор кодека/Информация : UTF-8 Plain Text
Продолжительность : 1 ч. 40 м.
Битрейт : 48 бит/сек
ElementCount : 883
Размер потока : 35,7 Кбайт (0%)
Заголовок : Full
Язык : English
Default : Нет
Forced : Нет
Текст #3
Идентификатор : 7
Формат : UTF-8
Идентификатор кодека : S_TEXT/UTF8
Идентификатор кодека/Информация : UTF-8 Plain Text
Продолжительность : 1 ч. 43 м.
Битрейт : 50 бит/сек
ElementCount : 976
Размер потока : 38,2 Кбайт (0%)
Заголовок : SDH
Язык : English
Default : Нет
Forced : Нет
Меню
00:00:00.000 : en:Chapter 1
00:15:17.791 : en:Chapter 2
00:27:26.186 : en:Chapter 3
00:40:35.641 : en:Chapter 4
00:54:45.156 : en:Chapter 5
01:07:11.277 : en:Chapter 6
01:20:07.177 : en:Chapter 7
01:31:49.045 : en:Chapter 8-
-

Скриншоты

--
-
[korsars.info].t21603.torrent 
Торрент: Зарегистрирован [ 2019-06-15 12:44 ] · 999CF1A242DD5CB0BD492552431EF7D23F307F4D

Скачать .torrent

Скачать .torrent

136 KB

Статус: проверено
.torrent скачан: 2 раз
Размер: 26,99 GB
Правила
Похожие темы

[Профиль] [ЛС]
Показать сообщения:    
Ответить на тему

Текущее время: 18-Авг 13:07

Часовой пояс: UTC + 4



Вы не можете начинать темы
Вы не можете отвечать на сообщения
Вы не можете редактировать свои сообщения
Вы не можете удалять свои сообщения
Вы не можете голосовать в опросах
Вы не можете прикреплять файлы к сообщениям
Вы можете скачивать файлы
Анализ сайта korsars.info Яндекс.Метрика