Игра престолов / Game Of Thrones [S04] (2014) BDRip-HEVC 1080 от HEVC-CLUB | D, P

Ответить на тему
Статистика раздачи [Обновить пиров]
Размер:  31,93 GB   |    Зарегистрирован:  2 месяца 2 дня   |    .torrent скачан:  1 раз
Раздают:  34  [  0 KB/s  ]   Качают:  10  [  0 KB/s  ]   Подробная статистика пиров
 
   
 
 
Автор Сообщение

4udaki ®

Онлайн

Медали


Пол: Мужской

Стаж: 5 лет 5 месяцев

Наличие запрета:

Сообщений: 6354

Откуда: korsars.info

Отдача: 2 Mb/s

Загрузка: 20 Mb/s

Нажми

Создавать темы 04-Фев-2020 01:00

[Цитировать]

Название: Игра престолов
Оригинальное название: Game Of Thrones
Год выхода: 2014
Производство: США, Великобритания / Home Box Office (HBO), Television 360, Grok! Studio
Жанр: Фэнтези, Драма, Боевик, Мелодрама
Перевод: Дублированный, многоголосый закадровый
Продолжительность: 10 x ~ 00:50:00
Режиссеры: Дэвид Наттер, Алан Тейлор, Алекс Грейвз
В ролях: Питер Динклэйдж, Лина Хиди, Эмилия Кларк, Кит Харингтон, Софи Тёрнер, Мэйси Уильямс, Николай Костер-Вальдау, Иэн Глен, Алфи Аллен, Джон Брэдли
Описание: Ланнистеры воодушевлены резней в Речных землях, которую в народе стали называть Красной свадьбой. Во время массового убийства были уничтожены многие их заклятые враги Старки, и Ланнистеры надеются, что железный трон будет стоять крепко. Но теперь им придется сражаться со своим собственным самолюбием, а также не забывать про новые угрозы, которые двигаются с юга, севера и востока. Пока еще непобежденный Станнис восстанавливает свою армию в Драконьем Камне, большую опасность начинает представлять Оберин Мартелл, ненавидимый Ланнистерами «Красный Змей Дорна», который приезжает в Королевскую Гавань на свадьбу Джоффри и Маргери. И это не все, у Оберина в столице есть и другие дела. На севере, на Стене, численность армии Ночного дозора значительно меньше, чем армия одичалых Манса, с которой им предстоит сражаться. А за армией Манса следует еще более страшная угроза — белые ходоки. Но и это еще не все. Дейенерис Таргариен вместе со своими грозными драконами и армией Безупречных намерена захватить Миэрин, крупнейший город в бухте Работорговцев, где она определенно получит достаточное количество кораблей, чтобы доплыть до Вестероса и захватить железный трон.
Формат: MKV
Качество: BDRip-HEVC 1080p
Видео : HEVC/X.265, 1920x1080, ~4405-7032 кбит/сек, 10 bit
Аудио 1 : AC3, 6 ch, 640 Kbps - Русский, Дублированный (Кравец)
Аудио 2 : AC3, 6 ch, 640 Kbps - Русский, MVO (AlexFilm)
Аудио 3 : AC3, 6 ch, 640 Kbps - Русский, MVO (LostFilm)
Аудио 4 : AC3, 6 ch, 640 Kbps - Русский, MVO (Fox)
Аудио 5 : AC3, 6 ch, 640 Kbps - Английский, Original
Субтитры: Русские (форсированные,полные)

Mediainfo

x265 [info]: frame I: 325, Avg QP:17.59 kb/s: 22165.23
x265 [info]: frame P: 16542, Avg QP:19.09 kb/s: 11495.30
x265 [info]: frame B: 58756, Avg QP:21.28 kb/s: 3404.59
x265 [info]: Weighted P-Frames: Y:5.2% UV:4.1%
x265 [info]: Weighted B-Frames: Y:6.2% UV:4.5%
x265 [info]: consecutive B-frames: 2.4% 2.5% 31.5% 20.6% 13.2% 20.7% 4.0% 2.5% 1.0% 0.6% 0.5% 0.2% 0.2%
x265 [info]: encoded 75623 frames in 38272.62s (1.98 fps), 5255.00 kb/s, Avg QP:20.78
General
Unique ID : 127856410481096767969717969742925469001 (0x60303FBB5DE8F8ECFD69169EC1711549)
Complete name : D:DownloadGame_Of_Thrones_Season 04#01 Два меча.mkv
Format : Matroska
Format version : Version 4
File size : 3.11 GiB
Duration : 58 min 43 s
Overall bit rate : 7 592 kb/s
Movie name : Два меча / Two Swords
Encoded date : UTC 2019-12-09 12:13:21
Writing application : mkvmerge v40.0.0 ('Old Town Road + Pony') 64-bit
Writing library : libebml v1.3.9 + libmatroska v1.5.2
Cover : Yes
Attachments : Cover.jpg
Video
ID : 1
Format : HEVC
Format/Info : High Efficiency Video Coding
Format profile : Main [email protected]@High
Codec ID : V_MPEGH/ISO/HEVC
Duration : 58 min 13 s
Bit rate : 4 443 kb/s
Width : 1 920 pixels
Height : 1 080 pixels
Display aspect ratio : 16:9
Frame rate mode : Constant
Frame rate : 23.976 (24000/1001) FPS
Color space : YUV
Chroma subsampling : 4:2:0
Bit depth : 10 bits
Bits/(Pixel*Frame) : 0.089
Stream size : 1.81 GiB (58%)
Title : Two Swords
Writing library : x265 2.9+15-81373aab81df:[Windows][GCC 8.2.0][64 bit] 10bit
Encoding settings : cpuid=1111039 / frame-threads=3 / numa-pools=8 / wpp / no-pmode / no-pme / psnr / ssim / log-level=2 / input-csp=1 / input-res=1920x1080 / interlace=0 / total-frames=83750 / level-idc=41 / high-tier=1 / uhd-bd=0 / ref=5 / no-allow-non-conformance / no-repeat-headers / annexb / no-aud / no-hrd / info / hash=0 / no-temporal-layers / open-gop / min-keyint=23 / keyint=240 / gop-lookahead=0 / bframes=13 / b-adapt=2 / b-pyramid / bframe-bias=0 / rc-lookahead=80 / lookahead-slices=0 / scenecut=40 / radl=0 / no-splice / no-intra-refresh / ctu=64 / min-cu-size=8 / rect / amp / max-tu-size=32 / tu-inter-depth=4 / tu-intra-depth=4 / limit-tu=1 / rdoq-level=2 / dynamic-rd=0.00 / no-ssim-rd / signhide / no-tskip / nr-intra=0 / nr-inter=0 / no-constrained-intra / no-strong-intra-smoothing / max-merge=5 / limit-refs=3 / limit-modes / me=3 / subme=7 / merange=57 / temporal-mvp / weightp / weightb / no-analyze-src-pics / deblock=-3:-3 / no-sao / no-sao-non-deblock / rd=6 / no-early-skip / rskip / no-fast-intra / no-tskip-fast / no-cu-lossless / b-intra / no-splitrd-skip / rdpenalty=0 / psy-rd=2.00 / psy-rdoq=1.00 / no-rd-refine / no-lossless / cbqpoffs=0 / crqpoffs=0 / rc=crf / crf=20.4 / qcomp=0.60 / qpstep=4 / stats-write=0 / stats-read=0 / vbv-maxrate=50000 / vbv-bufsize=50000 / vbv-init=0.9 / crf-max=0.0 / crf-min=0.0 / ipratio=1.40 / pbratio=1.30 / aq-mode=2 / aq-strength=0.80 / no-cutree / zone-count=0 / no-strict-cbr / qg-size=32 / no-rc-grain / qpmax=69 / qpmin=0 / no-const-vbv / sar=1 / overscan=0 / videoformat=5 / range=0 / colorprim=2 / transfer=2 / colormatrix=2 / chromaloc=0 / display-window=0 / max-cll=0,0 / min-luma=0 / max-luma=1023 / log2-max-poc-lsb=8 / vui-timing-info / vui-hrd-info / slices=1 / no-opt-qp-pps / no-opt-ref-list-length-pps / no-multi-pass-opt-rps / scenecut-bias=0.00 / no-opt-cu-delta-qp / no-aq-motion / no-hdr / no-hdr-opt / no-dhdr10-opt / no-idr-recovery-sei / analysis-reuse-level=5 / scale-factor=0 / refine-intra=0 / refine-inter=0 / refine-mv=0 / no-limit-sao / ctu-info=0 / no-lowpass-dct / refine-mv-type=0 / copy-pic=1 / max-ausize-factor=1.0 / no-dynamic-refine / no-single-sei
Language : English
Default : Yes
Forced : No
Audio #1
ID : 2
Format : AC-3
Format/Info : Audio Coding 3
Commercial name : Dolby Digital
Codec ID : A_AC3
Duration : 58 min 13 s
Bit rate mode : Constant
Bit rate : 640 kb/s
Channel(s) : 6 channels
Channel layout : L R C LFE Ls Rs
Sampling rate : 48.0 kHz
Frame rate : 31.250 FPS (1536 SPF)
Compression mode : Lossy
Stream size : 267 MiB (8%)
Title : Дубляж (Kravec)
Language : Russian
Service kind : Complete Main
Default : Yes
Forced : No
Audio #2
ID : 3
Format : AC-3
Format/Info : Audio Coding 3
Commercial name : Dolby Digital
Codec ID : A_AC3
Duration : 58 min 13 s
Bit rate mode : Constant
Bit rate : 640 kb/s
Channel(s) : 6 channels
Channel layout : L R C LFE Ls Rs
Sampling rate : 48.0 kHz
Frame rate : 31.250 FPS (1536 SPF)
Compression mode : Lossy
Stream size : 267 MiB (8%)
Title : MVO (AlexFilm)
Language : Russian
Service kind : Complete Main
Default : No
Forced : No
Audio #3
ID : 4
Format : AC-3
Format/Info : Audio Coding 3
Commercial name : Dolby Digital
Codec ID : A_AC3
Duration : 58 min 43 s
Bit rate mode : Constant
Bit rate : 640 kb/s
Channel(s) : 6 channels
Channel layout : L R C LFE Ls Rs
Sampling rate : 48.0 kHz
Frame rate : 31.250 FPS (1536 SPF)
Compression mode : Lossy
Stream size : 269 MiB (8%)
Title : MVO (LostFilm)
Language : Russian
Service kind : Complete Main
Default : No
Forced : No
Audio #4
ID : 5
Format : AC-3
Format/Info : Audio Coding 3
Commercial name : Dolby Digital
Codec ID : A_AC3
Duration : 58 min 43 s
Bit rate mode : Constant
Bit rate : 640 kb/s
Channel(s) : 6 channels
Channel layout : L R C LFE Ls Rs
Sampling rate : 48.0 kHz
Frame rate : 31.250 FPS (1536 SPF)
Compression mode : Lossy
Stream size : 269 MiB (8%)
Title : MVO (Fox)
Language : Russian
Service kind : Complete Main
Default : No
Forced : No
Audio #5
ID : 6
Format : AC-3
Format/Info : Audio Coding 3
Commercial name : Dolby Digital
Codec ID : A_AC3
Duration : 58 min 13 s
Bit rate mode : Constant
Bit rate : 640 kb/s
Channel(s) : 6 channels
Channel layout : L R C LFE Ls Rs
Sampling rate : 48.0 kHz
Frame rate : 31.250 FPS (1536 SPF)
Compression mode : Lossy
Stream size : 267 MiB (8%)
Title : Original
Language : English
Service kind : Complete Main
Default : No
Forced : No
Text #1
ID : 7
Format : UTF-8
Codec ID : S_TEXT/UTF8
Codec ID/Info : UTF-8 Plain Text
Duration : 11 s 810 ms
Bit rate : 180 b/s
Count of elements : 5
Stream size : 267 Bytes (0%)
Title : Forced
Language : Russian
Default : Yes
Forced : Yes
Text #2
ID : 8
Format : UTF-8
Codec ID : S_TEXT/UTF8
Codec ID/Info : UTF-8 Plain Text
Duration : 54 min 27 s
Bit rate : 111 b/s
Count of elements : 825
Stream size : 44.5 KiB (0%)
Title : Full (7kingdoms)
Language : Russian
Default : No
Forced : No
Text #3
ID : 9
Format : UTF-8
Codec ID : S_TEXT/UTF8
Codec ID/Info : UTF-8 Plain Text
Duration : 52 min 54 s
Bit rate : 113 b/s
Count of elements : 632
Stream size : 43.9 KiB (0%)
Title : Full (А. Митраков & И. Белкин)
Language : Russian
Default : No
Forced : No
Menu
00:00:00.000 : en:Chapter 1
00:00:07.006 : en:Chapter 2
00:01:50.484 : en:Chapter 3
00:03:38.759 : en:Chapter 4
00:09:27.775 : en:Chapter 5
00:17:01.979 : en:Chapter 6
00:25:16.265 : en:Chapter 7
00:36:17.842 : en:Chapter 8
00:46:36.251 : en:Chapter 9
00:56:51.324 : en:Chapter 10

Скриншоты

Огромная просьба к скачавшим оставаться на раздаче как можно дольше!!!
Релиз от: OldGamer
[korsars.info].t26106.torrent 
Торрент: Зарегистрирован [ 2020-02-04 01:00 ] · 5DE61291F27D5FAF43C14A5D4119E875B23890DF

Скачать .torrent

Скачать .torrent

82 KB

Статус: проверено
.torrent скачан: 1 раз
Размер: 31,93 GB
Правила
Похожие темы

[Профиль] [ЛС]
Показать сообщения:    
Ответить на тему

Текущее время: 06-Апр 23:16

Часовой пояс: UTC + 4



Вы не можете начинать темы
Вы не можете отвечать на сообщения
Вы не можете редактировать свои сообщения
Вы не можете удалять свои сообщения
Вы не можете голосовать в опросах
Вы не можете прикреплять файлы к сообщениям
Вы можете скачивать файлы
Анализ сайта korsars.info Яндекс.Метрика