РобоКоп / RoboCop (2014) WEBRip 720p | D | Open Matte

Ответить на тему
Статистика раздачи [Обновить пиров]
Размер:  3,21 GB   |    Зарегистрирован:  1 месяц 22 дня   |    .torrent скачан:  0 раз
Раздают:  8  [  0 KB/s  ]   Качают:  3  [  0 KB/s  ]   Подробная статистика пиров
 
   
 
 
Автор Сообщение

4udaki ®

Оффлайн

Медали


Пол: Мужской

Стаж: 5 лет 5 месяцев

Наличие запрета:

Сообщений: 6355

Откуда: korsars.info

Отдача: 2 Mb/s

Загрузка: 20 Mb/s

Нажми

Создавать темы 13-Фев-2020 13:00

[Цитировать]

Информация о фильме
Название: РобоКоп
Оригинальное название: RoboCop
Год выхода: 2014
Жанр: фантастика, боевик, триллер, криминал
Режиссер: Жозе Падилья / José Padilha
В ролях: Юэль Киннаман, Гари Олдман, Майкл Китон, Эбби Корниш, Джей Барушель, Сэмюэл Л. Джексон, Айми Гарсиа, Дженнифер Или, Джеки Эрл Хейли, Майкл К. Уильямс
О фильме:
Алекс Мерфи, любящий муж, отец и хороший полицейский, борется с лавиной преступности и коррупции, обрушившейся на Детройт. Его, тяжело раненного при исполнении служебных обязанностей, OmniCorp решает задействовать в своем робототехническом эксперименте, чтобы спасти герою жизнь. Алекс возвращается на улицы города, имея в багаже новые способности, но задаваясь вопросами, с которыми человеку никогда ранее не приходилось сталкиваться.

Страна: США
Студия: Metro-Goldwyn-Mayer (MGM), Columbia Pictures, Strike Entertainment
Продолжительность: 01:57:27
Перевод: Профессиональный (полное дублирование) [лицензия BD CEE]
Субтитры: Русские (полные + форс.), украинские (полные + форс.), английские (Forced + SDH + SDH-Colored)
Файл
Формат: Matroska
Качество: WEBRip 720p | Open Matte | *VIP*
Видео: AVC/H264, 1280x720, 23.976, ~3068 kbps
Аудио 1: русский (AC3, 6 ch, 48 kHz, 448 kbps)
Аудио 2: английский (AC3, 6 ch, 48 kHz, 448 kbps)
Формат субтитров: softsub (SRT)
***Релиз от: -=DoMiNo=-

***Сравнения => BD vs WEBRip Open Matte

Примечание:

Open Matte версия имеет другое наполнение кадра.
Исходник с онлайн кинотеатра vipplay - Присутствует логотип канала!!!

M/I

x264 info: frame I:1214 Avg QP:18.04 size: 65606
x264 info: frame P:43384 Avg QP:18.92 size: 28878
x264 info: frame B:124376 Avg QP:20.64 size: 10628
General
Format : Matroska
Format version : Version 4
File size : 3.21 GiB
Duration : 1 h 57 min
Overall bit rate : 3 912 kb/s
Movie name : РобоКоп.(2014).WEBRip.720p.O.M.[-=DoMiNo=-]
Encoded date : UTC 2019-12-28 18:55:35
Writing application : mkvmerge v41.0.0 ('Smarra') 64-bit
Writing library : libebml v1.3.9 + libmatroska v1.5.2
Attachments : poster / poster
Video
ID : 1
Format : AVC
Format/Info : Advanced Video Codec
Format profile : [email protected]
Format settings : CABAC / 9 Ref Frames
Format settings, CABAC : Yes
Format settings, Reference : 9 frames
Codec ID : V_MPEG4/ISO/AVC
Duration : 1 h 57 min
Bit rate : 3 013 kb/s
Width : 1 280 pixels
Height : 720 pixels
Display aspect ratio : 16:9
Frame rate mode : Constant
Frame rate : 23.976 (23976/1000) FPS
Original frame rate : 25.000 FPS
Color space : YUV
Chroma subsampling : 4:2:0
Bit depth : 8 bits
Scan type : Progressive
Bits/(Pixel*Frame) : 0.136
Stream size : 2.47 GiB (77%)
Title : RIP_BY_-=DoMiNo=-
Writing library : x264 core 157 r2958 57baac4
Encoding settings : cabac=1 / ref=9 / deblock=1:-3:-3 / analyse=0x3:0x133 / me=umh / subme=11 / psy=1 / psy_rd=1.00:0.00 / mixed_ref=1 / me_range=32 / chroma_me=1 / trellis=2 / 8x8dct=1 / cqm=0 / deadzone=21,11 / fast_pskip=1 / chroma_qp_offset=-2 / threads=6 / lookahead_threads=1 / sliced_threads=0 / nr=0 / decimate=1 / interlaced=0 / bluray_compat=0 / constrained_intra=0 / bframes=8 / b_pyramid=2 / b_adapt=2 / b_bias=0 / direct=1 / weightb=1 / open_gop=0 / weightp=2 / keyint=250 / keyint_min=25 / scenecut=40 / intra_refresh=0 / rc_lookahead=40 / rc=crf / mbtree=0 / crf=19.0 / qcomp=0.60 / qpmin=15 / qpmax=69 / qpstep=4 / vbv_maxrate=50000 / vbv_bufsize=62500 / crf_max=30.0 / nal_hrd=none / filler=0 / ip_ratio=1.40 / pb_ratio=1.30 / aq=1:1.00
Language : English
Default : Yes
Forced : No
Color range : Limited
Color primaries : BT.709
Transfer characteristics : BT.709
Matrix coefficients : BT.709
Audio #1
ID : 2
Format : AC-3
Format/Info : Audio Coding 3
Commercial name : Dolby Digital
Codec ID : A_AC3
Duration : 1 h 57 min
Bit rate mode : Constant
Bit rate : 448 kb/s
Channel(s) : 6 channels
Channel layout : L R C LFE Ls Rs
Sampling rate : 48.0 kHz
Frame rate : 31.250 FPS (1536 SPF)
Compression mode : Lossy
Stream size : 376 MiB (11%)
Title : DUB_ [лицензия BD CEE]
Language : Russian
Service kind : Complete Main
Default : Yes
Forced : No
Audio #2
ID : 3
Format : AC-3
Format/Info : Audio Coding 3
Commercial name : Dolby Digital
Codec ID : A_AC3
Duration : 1 h 57 min
Bit rate mode : Constant
Bit rate : 448 kb/s
Channel(s) : 6 channels
Channel layout : L R C LFE Ls Rs
Sampling rate : 48.0 kHz
Frame rate : 31.250 FPS (1536 SPF)
Compression mode : Lossy
Stream size : 376 MiB (11%)
Title : ENG
Language : English
Service kind : Complete Main
Default : No
Forced : No
Text #1
ID : 4
Format : UTF-8
Codec ID : S_TEXT/UTF8
Codec ID/Info : UTF-8 Plain Text
Duration : 1 h 50 min
Bit rate : 3 b/s
Count of elements : 84
Stream size : 3.17 KiB (0%)
Title : Forced
Language : Russian
Default : No
Forced : Yes
Text #2
ID : 5
Format : UTF-8
Codec ID : S_TEXT/UTF8
Codec ID/Info : UTF-8 Plain Text
Duration : 1 h 50 min
Bit rate : 94 b/s
Count of elements : 1642
Stream size : 76.8 KiB (0%)
Language : Russian
Default : No
Forced : No
Text #3
ID : 6
Format : UTF-8
Codec ID : S_TEXT/UTF8
Codec ID/Info : UTF-8 Plain Text
Duration : 1 h 55 min
Bit rate : 3 b/s
Count of elements : 71
Stream size : 3.09 KiB (0%)
Title : Forced
Language : Ukrainian
Default : No
Forced : No
Text #4
ID : 7
Format : UTF-8
Codec ID : S_TEXT/UTF8
Codec ID/Info : UTF-8 Plain Text
Duration : 1 h 56 min
Bit rate : 103 b/s
Count of elements : 1587
Stream size : 88.4 KiB (0%)
Language : Ukrainian
Default : No
Forced : No
Text #5
ID : 8
Format : UTF-8
Codec ID : S_TEXT/UTF8
Codec ID/Info : UTF-8 Plain Text
Duration : 2 min 7 s
Bit rate : 44 b/s
Count of elements : 30
Stream size : 701 Bytes (0%)
Title : Forced
Language : English
Default : No
Forced : No
Text #6
ID : 9
Format : UTF-8
Codec ID : S_TEXT/UTF8
Codec ID/Info : UTF-8 Plain Text
Duration : 1 h 51 min
Bit rate : 68 b/s
Count of elements : 1754
Stream size : 55.9 KiB (0%)
Title : SDH
Language : English
Default : No
Forced : No
Text #7
ID : 10
Format : UTF-8
Codec ID : S_TEXT/UTF8
Codec ID/Info : UTF-8 Plain Text
Duration : 1 h 51 min
Bit rate : 79 b/s
Count of elements : 1705
Stream size : 64.6 KiB (0%)
Title : SDH-Colored
Language : English
Default : No
Forced : No
Menu
00:04:33.898 : en:(01)00:04:33:898
00:08:51.739 : en:(02)00:08:51:739
00:14:33.914 : en:(03)00:14:33:914
00:17:01.603 : en:(04)00:17:01:603
00:19:27.040 : en:(05)00:19:27:040
00:21:52.936 : en:(06)00:21:52:936
00:26:13.572 : en:(07)00:26:13:572
00:30:47.971 : en:(08)00:30:47:971
00:32:48.675 : en:(09)00:32:48:675
00:36:12.378 : en:(10)00:36:12:378
00:39:06.969 : en:(11)00:39:06:969
00:43:03.497 : en:(12)00:43:03:497
00:45:40.654 : en:(13)00:45:40:654
00:52:10.377 : en:(14)00:52:10:377
00:57:21.187 : en:(15)00:57:21:187
01:01:23.888 : en:(16)01:01:23:888
01:02:59.901 : en:(17)01:02:59:901
01:06:05.920 : en:(18)01:06:05:920
01:10:30.476 : en:(19)01:10:30:476
01:13:26.527 : en:(20)01:13:26:527
01:18:24.866 : en:(21)01:18:24:866
01:21:56.202 : en:(22)01:21:56:202
01:26:04.993 : en:(23)01:26:04:993
01:28:06.906 : en:(24)01:28:06:906
01:32:02.975 : en:(25)01:32:02:975
01:35:52.955 : en:(26)01:35:52:955
01:38:30.654 : en:(27)01:38:30:654
01:41:30.751 : en:(28)01:41:30:751
01:43:44.635 : en:(29)01:43:44:635
01:46:41.561 : en:(30)01:46:41:561
01:50:12.689 : en:(31)01:50:12:689
01:57:28.958 : en:(32)01:57:28:958

Скриншоты

[korsars.info].t26336.torrent 
Торрент: Зарегистрирован [ 2020-02-13 13:00 ] · FD818B69538EB0993069163E52246F3333EA087F

Скачать .torrent

Скачать .torrent

65 KB

Статус: проверено
.torrent скачан: 0 раз
Размер: 3,21 GB
Правила
Похожие темы

[Профиль] [ЛС]
Показать сообщения:    
Ответить на тему

Текущее время: 06-Апр 20:53

Часовой пояс: UTC + 4



Вы не можете начинать темы
Вы не можете отвечать на сообщения
Вы не можете редактировать свои сообщения
Вы не можете удалять свои сообщения
Вы не можете голосовать в опросах
Вы не можете прикреплять файлы к сообщениям
Вы можете скачивать файлы
Анализ сайта korsars.info Яндекс.Метрика