Кошки / Cats (2019) BDRemux 1080p от селезень | iTunes

Ответить на тему
Статистика раздачи [Обновить пиров]
Размер:  23,02 GB   |    Зарегистрирован:  1 месяц 15 дней   |    .torrent скачан:  0 раз
Раздают:  25  [  0 KB/s  ]   Качают:  5  [  0 KB/s  ]   Подробная статистика пиров
 
   
 
 
Автор Сообщение

4udaki ®

Оффлайн

Медали


Пол: Мужской

Стаж: 5 лет 8 месяцев

Наличие запрета:

Сообщений: 7434

Откуда: korsars.info

Отдача: 2 Mb/s

Загрузка: 20 Mb/s

Нажми

Создавать темы 25-Май-2020 17:00

[Цитировать]

Информация о фильме
Название: Кошки
Оригинальное название: Cats
Год выхода: 2019
Жанр: Мюзикл, фэнтези, драма, комедия
Режиссер: Том Хупер
В ролях: Тейлор Свифт, Франческа Хэйуорд, Идрис Эльба, Джуди Денч, Иэн МакКеллен, Ребел Уилсон, Джеймс Корден, Метте Таули, Рэй Уинстон, Лори Дэвидсон, Роберт Фэйрчайлд, Дженнифер Хадсон

О фильме: На ежегодный кошачий бал собираются кошки из Племени избранных из разных уголков земли. Все они разные: породистые и беспородные, юные и старые, домашние любимцы и бездомные. Когда они собираются вместе, каждая кошка рассказывает о себе - чем же она так исключительна, и за что её можно считать избранной.
Страна: Великобритания, США
Студия: Working Title Films, Amblin Entertainment, Perfect World Pictures
Продолжительность: 01:49:58
Перевод: Дублированный | iTunes
Качество: BDRemux 1080p
Видео: MPEG-4 AVC, 1920x1080, 25.9 Mbit/s, 23.976 fps
Аудио #01: 48 kHz, AC3, 5.1, 384 Kbps | iTunes | RUS |
Аудио #02: 48 kHz, TrueHD, 7.1, 3169 Kbps | Оригинал | ENG |
Аудио #03: 48 kHz, AC3, 5.1, 448 Kbps | Оригинал | ENG |
Субтитры: Русские (Forced [songs], full), английские

MI

General
Unique ID : 243247645579319845371537330497506501055 (0xB6FFCADE273F90684205FF9E99E7E1BF)
Complete name : E:Video111Cats.2019.BDREMUX.1080p.seleZen.mkv
Format : Matroska
Format version : Version 4
File size : 23.0 GiB
Duration : 1 h 49 min
Overall bit rate mode : Variable
Overall bit rate : 30.0 Mb/s
Movie name : Cats 2019 from селезень
Encoded date : UTC 2020-03-29 23:35:14
Writing application : mkvmerge v40.0.0 ('Old Town Road + Pony') 64-bit
Writing library : libebml v1.3.9 + libmatroska v1.5.2
Video
ID : 1
Format : AVC
Format/Info : Advanced Video Codec
Format profile : [email protected]
Format settings : CABAC / 2 Ref Frames
Format settings, CABAC : Yes
Format settings, Reference : 2 frames
Codec ID : V_MPEG4/ISO/AVC
Duration : 1 h 49 min
Bit rate mode : Variable
Bit rate : 25.9 Mb/s
Width : 1 920 pixels
Height : 1 080 pixels
Display aspect ratio : 16:9
Frame rate mode : Constant
Frame rate : 23.976 (24000/1001) FPS
Color space : YUV
Chroma subsampling : 4:2:0
Bit depth : 8 bits
Scan type : Progressive
Bits/(Pixel*Frame) : 0.521
Stream size : 19.9 GiB (86%)
Language : English
Default : Yes
Forced : No
Audio #1
ID : 2
Format : AC-3
Format/Info : Audio Coding 3
Commercial name : Dolby Digital
Codec ID : A_AC3
Duration : 1 h 49 min
Bit rate mode : Constant
Bit rate : 384 kb/s
Channel(s) : 6 channels
Channel layout : L R C LFE Ls Rs
Sampling rate : 48.0 kHz
Frame rate : 31.250 FPS (1536 SPF)
Compression mode : Lossy
Stream size : 302 MiB (1%)
Title : iTunes
Language : Russian
Service kind : Complete Main
Default : Yes
Forced : Yes
Audio #2
ID : 3
Format : MLP FBA 16-ch
Format/Info : Meridian Lossless Packing FBA with 16-channel presentation
Commercial name : Dolby TrueHD with Dolby Atmos
Codec ID : A_TRUEHD
Duration : 1 h 49 min
Bit rate mode : Variable
Bit rate : 3 169 kb/s
Maximum bit rate : 5 103 kb/s
Channel(s) : 8 channels
Channel layout : L R C LFE Ls Rs Lb Rb
Sampling rate : 48.0 kHz
Frame rate : 1 200.000 FPS (40 SPF)
Compression mode : Lossless
Stream size : 2.43 GiB (11%)
Title : Original
Language : English
Default : No
Forced : No
Number of dynamic objects : 11
Bed channel count : 1 channel
Bed channel configuration : LFE
Audio #3
ID : 4
Format : AC-3
Format/Info : Audio Coding 3
Commercial name : Dolby Digital
Codec ID : A_AC3
Duration : 1 h 49 min
Bit rate mode : Constant
Bit rate : 448 kb/s
Channel(s) : 6 channels
Channel layout : L R C LFE Ls Rs
Sampling rate : 48.0 kHz
Frame rate : 31.250 FPS (1536 SPF)
Compression mode : Lossy
Stream size : 352 MiB (1%)
Language : English
Service kind : Complete Main
Default : No
Forced : No
Text #1
ID : 5
Format : UTF-8
Codec ID : S_TEXT/UTF8
Codec ID/Info : UTF-8 Plain Text
Duration : 1 h 40 min
Bit rate : 53 b/s
Count of elements : 669
Stream size : 39.7 KiB (0%)
Title : Forced (Songs)
Language : Russian
Default : Yes
Forced : Yes
Text #2
ID : 6
Format : UTF-8
Codec ID : S_TEXT/UTF8
Codec ID/Info : UTF-8 Plain Text
Duration : 1 h 40 min
Bit rate : 69 b/s
Count of elements : 885
Stream size : 51.1 KiB (0%)
Title : Full
Language : Russian
Default : No
Forced : No
Text #3
ID : 7
Format : UTF-8
Codec ID : S_TEXT/UTF8
Codec ID/Info : UTF-8 Plain Text
Duration : 1 h 44 min
Bit rate : 63 b/s
Count of elements : 1185
Stream size : 48.6 KiB (0%)
Title : Full
Language : English
Default : No
Forced : No
Text #4
ID : 8
Format : UTF-8
Codec ID : S_TEXT/UTF8
Codec ID/Info : UTF-8 Plain Text
Duration : 1 h 46 min
Bit rate : 64 b/s
Count of elements : 1270
Stream size : 50.5 KiB (0%)
Title : SDH
Language : English
Default : No
Forced : No
Menu
00:00:00.000 : en:Chapter 01
00:07:44.464 : en:Chapter 02
00:11:33.902 : en:Chapter 03
00:13:32.061 : en:Chapter 04
00:18:05.918 : en:Chapter 05
00:23:01.839 : en:Chapter 06
00:26:31.590 : en:Chapter 07
00:32:34.286 : en:Chapter 08
00:39:38.960 : en:Chapter 09
00:45:09.332 : en:Chapter 10
00:50:32.821 : en:Chapter 11
00:58:08.360 : en:Chapter 12
01:04:10.263 : en:Chapter 13
01:09:11.147 : en:Chapter 14
01:14:19.705 : en:Chapter 15
01:16:02.349 : en:Chapter 16
01:25:08.145 : en:Chapter 17
01:32:09.858 : en:Chapter 18
01:36:56.644 : en:Chapter 19
01:41:21.492 : en:Chapter 20
Релиз от:
[korsars.info].t29014.torrent 
Торрент: Зарегистрирован [ 2020-05-25 17:00 ] · BE13528567A416BC267C5D0005020C7FE210AE95

Скачать .torrent

Размер .torrent файла 30 KB

Статус: проверено
.torrent скачан: 0 раз
Размер: 23,02 GB
Правила
Похожие темы

[Профиль] [ЛС]
Показать сообщения:    
Ответить на тему

Текущее время: 10-Июл 16:35

Часовой пояс: UTC + 4



Вы не можете начинать темы
Вы не можете отвечать на сообщения
Вы не можете редактировать свои сообщения
Вы не можете удалять свои сообщения
Вы не можете голосовать в опросах
Вы не можете прикреплять файлы к сообщениям
Вы можете скачивать файлы
Анализ сайта korsars.info Яндекс.Метрика