Девица / Damsel (Дэвид Зеллнер, Нэйтан Зеллнер) [2018, драма, комедия, вестерн, WEB-DL 1080p | P]

Ответить на тему
Статистика раздачи [Обновить пиров]
Размер:  4,37 GB   |    Зарегистрирован:  2 месяца 17 дней   |    .torrent скачан:  2 раза
Сидов:  38  [  0 KB/s  ]   Личеров:  3  [  0 KB/s  ]   Подробная статистика пиров
 
   
 
 
Автор Сообщение

Skorp10n ®

Онлайн

 Активный раздающий 1 Активный раздающий 2
 Активный релизер 1000 Активный релизер 1500 Активный релизер 2000 Активный релизер 250 Активный релизер 3000 Активный релизер 500 Активный релизер 5000 Активный релизер Фильмов (1000) Активный релизер Фильмов (300) Активный релизер Фильмов (600) Активный Форумчанин 1 Активный Форумчанин 2 Активный Форумчанин 3 Активный Форумчанин 4 Друг трекера Карма 1000 Карма 1500 Карма 3000 Карма 500 Меценат Ни дня без новостей Орденосец 1 степени Орденосец 2 степени Орденосец 3 степени Почетный орденосец Почетный репортер С Новым 2016 Годом! С Новым 2017 Годом! С Новым 2018 Годом! С Новым 2019 Годом! Супер Мега Контер Квейк ТОП-10

Пол: Мужской

Стаж: 3 года 11 месяцев

Наличие запрета:

Сообщений: 10868

Откуда: Free-Tor.com

Отдача: не определено

Загрузка: не определено

Нажми

Создавать темы 30-Апр-2019 18:48

[Цитировать]

Информация о фильме- Название: Девица
Оригинальное название: Damsel
Год выхода: 2018
Жанр: Драма, комедия, вестерн
Режиссер: Дэвид Зеллнер, Нэйтан Зеллнер
В ролях: Роберт Паттинсон, Миа Васиковска, Дэвид Зеллнер, Нэйтан Зеллнер, Роберт Форстер, Джозеф Биллинджир, Морган Ланд, Рэй Келлехер, Робин Адамс, Гэри Брукинс-О фильме:-Самуэль Алабастер — в меру нарциссичный педант с носовыми платочками и историями про похищенную негодяями невесту Пенелопу. Верный соратник ковбоя — Генри, выдающий себя за миссионера-проповедника. Когда-то посреди пустыни измученный жизнью пастор отдал ему потрепанную Библию и полное обмундирование священника. Проповеди Генри слушают разве что крабы — большую часть времени пастор валяется на пляже мертвецки пьяным. Да и девушку не нужно спасать от разбойников — Пенелопа метко стреляет из двустволки, умеет пользоваться динамитом, сама кого хочешь и спасет, и пристрелит.- -Страна: США
Студия: Strophic Productions Limited
Продолжительность: 01:53:32
Перевод: Профессиональный многоголосый-Файл-Кодек: AVC
Качество: WEB-DL 1080p | Damsel.2018.1080p.WEB-DL.DD5.1.H264-FGT
Видео: MPEG-4 AVC, 4543 Kбит/с, 1916x800, 23.976 кадр/с
Звук: Без рекламы!
Аудио #1: Русский (АС3, 6ch, 384 Кбит/с, 48.0 KHz) Профессиональный (многоголосый, закадровый) Cтудия Vox Records
Аудио #2: Русский (АС3, 2ch, 192 Кбит/с, 48.0 KHz) Профессиональный (многоголосый, закадровый) HDRezka Studio
Аудио #3: Английский (АС3, 6ch, 384 Кбит/с, 48.0 KHz)
Субтитры: Русские (Full, *srt), английские (*srt)-

MediaInfo

-Источник: Damsel.2018.1080p.WEB-DL.DD5.1.H264-FGT
General
Unique ID : 175870551089312095922611217234116562080 (0x844F6FA224FFBA6584A4843123A54CA0)
Complete name : Damsel.2018.WEB-DL.1080p.mkv
Format : Matroska
Format version : Version 4 / Version 2
File size : 4.37 GiB
Duration : 1 h 53 min
Overall bit rate : 5 506 kb/s
Encoded date : UTC 2019-04-30 12:39:01
Writing application : mkvmerge v7.1.0 ('Good Love') 64bit built on Jul 27 2014 13:06:55
Writing library : libebml v1.3.0 + libmatroska v1.4.1
Video
ID : 1
Format : AVC
Format/Info : Advanced Video Codec
Format profile : [email protected]
Format settings, CABAC : Yes
Format settings, RefFrames : 5 frames
Codec ID : V_MPEG4/ISO/AVC
Duration : 1 h 53 min
Bit rate : 4 543 kb/s
Width : 1 916 pixels
Height : 800 pixels
Display aspect ratio : 2.40:1
Frame rate mode : Constant
Frame rate : 23.976 (24000/1001) FPS
Color space : YUV
Chroma subsampling : 4:2:0
Bit depth : 8 bits
Scan type : Progressive
Bits/(Pixel*Frame) : 0.124
Stream size : 3.60 GiB (83%)
Language : English
Default : Yes
Forced : No
Color range : Limited
Color primaries : BT.709
Transfer characteristics : BT.709
Matrix coefficients : BT.709
Audio #1
ID : 2
Format : AC-3
Format/Info : Audio Coding 3
Format settings, Endianness : Big
Codec ID : A_AC3
Duration : 1 h 53 min
Bit rate mode : Constant
Bit rate : 384 kb/s
Channel(s) : 6 channels
Channel positions : Front: L C R, Side: L R, LFE
Sampling rate : 48.0 kHz
Frame rate : 31.250 FPS (1536 SPF)
Bit depth : 16 bits
Compression mode : Lossy
Stream size : 312 MiB (7%)
Title : MVO | Cтудия Vox Records
Language : Russian
Service kind : Complete Main
Default : Yes
Forced : No
Audio #2
ID : 3
Format : AC-3
Format/Info : Audio Coding 3
Format settings, Endianness : Big
Codec ID : A_AC3
Duration : 1 h 53 min
Bit rate mode : Constant
Bit rate : 192 kb/s
Channel(s) : 2 channels
Channel positions : Front: L R
Sampling rate : 48.0 kHz
Frame rate : 31.250 FPS (1536 SPF)
Bit depth : 16 bits
Compression mode : Lossy
Stream size : 156 MiB (3%)
Title : MVO | HDRezka Studio
Language : Russian
Service kind : Complete Main
Default : No
Forced : No
Audio #3
ID : 4
Format : AC-3
Format/Info : Audio Coding 3
Format settings, Endianness : Big
Codec ID : A_AC3
Duration : 1 h 53 min
Bit rate mode : Constant
Bit rate : 384 kb/s
Channel(s) : 6 channels
Channel positions : Front: L C R, Side: L R, LFE
Sampling rate : 48.0 kHz
Frame rate : 31.250 FPS (1536 SPF)
Bit depth : 16 bits
Compression mode : Lossy
Stream size : 312 MiB (7%)
Language : English
Service kind : Complete Main
Default : No
Forced : No
Text #1
ID : 5
Format : UTF-8
Codec ID : S_TEXT/UTF8
Codec ID/Info : UTF-8 Plain Text
Duration : 1 h 46 min
Bit rate : 51 b/s
Count of elements : 898
Stream size : 40.7 KiB (0%)
Language : Russian
Default : No
Forced : No
Text #2
ID : 6
Format : UTF-8
Codec ID : S_TEXT/UTF8
Codec ID/Info : UTF-8 Plain Text
Duration : 1 h 50 min
Bit rate : 33 b/s
Count of elements : 917
Stream size : 27.2 KiB (0%)
Language : English
Default : No
Forced : No
Menu
00:00:00.000 : en:1
00:08:22.000 : en:2
00:18:49.000 : en:3
00:32:45.000 : en:4
00:40:56.000 : en:5
00:49:50.000 : en:6
01:01:32.000 : en:7
01:10:58.000 : en:8
01:20:05.000 : en:9
01:33:10.000 : en:10
01:43:49.000 : en:11
01:51:11.000 : en:12-
-

Скриншоты

--
-
[korsars.info].t21083.torrent 
Торрент: Зарегистрирован [ 2019-04-30 18:48 ] · B2D532C8FC0C84990B4B659FAF45D9FE8DC4D43B

Скачать .torrent

Скачать .torrent

12 KB

Статус: проверено
.torrent скачан: 2 раз
Размер: 4,37 GB
Правила
Похожие темы

[Профиль] [ЛС]
Показать сообщения:    
Ответить на тему

Текущее время: 18-Июл 12:56

Часовой пояс: UTC + 4



Вы не можете начинать темы
Вы не можете отвечать на сообщения
Вы не можете редактировать свои сообщения
Вы не можете удалять свои сообщения
Вы не можете голосовать в опросах
Вы не можете прикреплять файлы к сообщениям
Вы можете скачивать файлы
Анализ сайта korsars.info Яндекс.Метрика