Тихая Гавань / Safe Harbour (Глендин Айвин) [S01] [2018, драма, WEBRip | ColdFilm, LakeFilms, Sunshine Studio, Baibako]

Ответить на тему
Статистика раздачи [Обновить пиров]
Размер:  4,29 GB   |    Зарегистрирован:  1 год 4 месяца   |    .torrent скачан:  4 раза

Полного источника не было: Никогда

 
   
 
 
 
Автор Сообщение

Skorp10n ®

Оффлайн

Медали
VIPАктивный раздающий 1Активный раздающий 2Активный релизер 1000
Активный релизер 1500Активный релизер 2000Активный релизер 250Активный релизер 3000Активный релизер 500Активный релизер 5000Активный релизер Фильмов (1000)Активный релизер Фильмов (300)Активный релизер Фильмов (600)Активный Форумчанин 1Активный Форумчанин 2Активный Форумчанин 3Активный Форумчанин 4Друг трекераКарма 1000Карма 1500Карма 3000Карма 500МеценатНи дня без новостейОрденосец 1 степениОрденосец 2 степениОрденосец 3 степениПочетный орденосецПочетный репортерС Новым 2016 Годом!С Новым 2017 Годом!С Новым 2018 Годом!С Новым 2019 Годом!Супер Мега Контер КвейкТОП-10


Пол: Мужской

Стаж: 5 лет 1 месяц

Наличие запрета:

Сообщений: 11501

Откуда: KORSARS

Отдача: не определено

Загрузка: не определено

Нажми


Скачать Adguard бесплатно

Создавать темы 03-Май-2019 16:23

[Цитировать]

Тихая Гавань / Safe Harbour- Страна: Австралия
Производство: Matchbox Pictures
Год выпуска: 2018
Жанр: драма
Продолжительность: 4х ~00:53:00-Режиссер: Глендин Айвин
В ролях: Ивен Лесли, Лианна Уолсмен, Джоэль Джексон, Фиби Тонкин, Хазем Шаммас, Николь Шамун, Жаклин Маккензи, Роберт Рабия-Описание: Шестеро друзей, любителей путешествий, планируют проделать невероятный путь от Брисбена до Индонезии. На пути в Индонезию им встречается лодка, на борту которой находится огромное количество людей. Они ищут убежища и помощи. Друзья решают оказать поддержку бедствующим и не подозревают, чем это для них обернётся...--Перевод №1: Любительский (двухголосый, закадровый) | ColdFilm
Перевод №2: Любительский (двухголосый, закадровый) | LakeFilms
Перевод №3: Любительский (двухголосый, закадровый) | Sunshine Studio
Перевод №4: Любительский (многоголосый, закадровый) | Baibako / 1-2 серии
Субтитры: нет-Качество: WEBRip
Формат: AVI
Видео кодек: XviD
Аудио кодек: АС3
Видео: 704x400 (16:9), 25.000 fps, XviD build 73 ~2 000 kbps avg
Аудио №1: 48.0 kHz, AC3 Dolby Digital, 2/0 (L,R) ch, ~192 kbps | RUS / ColdFilm
Аудио №2: 48.0 kHz, AC3 Dolby Digital, 2/0 (L,R) ch, ~192 kbps | RUS / LakeFilms
Аудио №3: 48.0 kHz, AC3 Dolby Digital, 2/0 (L,R) ch, ~192 kbps | RUS / Sunshine Studio
Аудио №4: 48.0 kHz, AC3 Dolby Digital, 2/0 (L,R) ch, ~192 kbps | RUS / Baibako / 1-2 серии
Аудио №5: 48.0 kHz, AC3 Dolby Digital, 2/0 (L,R) ch, ~192 kbps | ENG / Original-Дата премьеры (мир): 7 марта 2018- -Релиз от: tеko-

Media Info

-General
Complete name : Safe.Harbour.2018.webrip_[teko]s01e01.avi
Format : AVI
Format/Info : Audio Video Interleave
File size : 1.10 GiB
Duration : 52mn 46s
Overall bit rate : 2 989 Kbps
Writing application : VirtualDubMod 1.5.10.3 | (build 2550/release)
Writing library : VirtualDubMod build 2550/release
Video
ID : 0
Format : MPEG-4 Visual
Format profile : Advanced [email protected]
Format settings, BVOP : 2
Format settings, QPel : No
Format settings, GMC : No warppoints
Format settings, Matrix : Custom
Codec ID : XVID
Codec ID/Hint : XviD
Duration : 52mn 46s
Bit rate : 2 000 Kbps
Width : 704 pixels
Height : 400 pixels
Display aspect ratio : 16:9
Frame rate : 25.000 fps
Color space : YUV
Chroma subsampling : 4:2:0
Bit depth : 8 bits
Scan type : Progressive
Compression mode : Lossy
Bits/(Pixel*Frame) : 0.284
Stream size : 755 MiB (67%)
Writing library : XviD 73
Audio #1
ID : 1
Format : AC-3
Format/Info : Audio Coding 3
Mode extension : CM (complete main)
Format settings, Endianness : Big
Codec ID : 2000
Duration : 52mn 46s
Bit rate mode : Constant
Bit rate : 192 Kbps
Channel(s) : 2 channels
Channel positions : Front: L R
Sampling rate : 48.0 KHz
Frame rate : 31.250 fps (1536 spf)
Compression mode : Lossy
Stream size : 72.5 MiB (6%)
Alignment : Split accross interleaves
Interleave, duration : 40 ms (1.00 video frame)
Interleave, preload duratio : 500 ms
Audio #2
ID : 2
Format : AC-3
Format/Info : Audio Coding 3
Mode extension : CM (complete main)
Format settings, Endianness : Big
Codec ID : 2000
Duration : 52mn 46s
Bit rate mode : Constant
Bit rate : 192 Kbps
Channel(s) : 2 channels
Channel positions : Front: L R
Sampling rate : 48.0 KHz
Frame rate : 31.250 fps (1536 spf)
Compression mode : Lossy
Stream size : 72.5 MiB (6%)
Alignment : Split accross interleaves
Interleave, duration : 40 ms (1.00 video frame)
Interleave, preload duratio : 500 ms
Audio #3
ID : 3
Format : AC-3
Format/Info : Audio Coding 3
Mode extension : CM (complete main)
Format settings, Endianness : Big
Codec ID : 2000
Duration : 52mn 46s
Bit rate mode : Constant
Bit rate : 192 Kbps
Channel(s) : 2 channels
Channel positions : Front: L R
Sampling rate : 48.0 KHz
Frame rate : 31.250 fps (1536 spf)
Compression mode : Lossy
Stream size : 72.5 MiB (6%)
Alignment : Split accross interleaves
Interleave, duration : 40 ms (1.00 video frame)
Interleave, preload duratio : 500 ms
Audio #4
ID : 4
Format : AC-3
Format/Info : Audio Coding 3
Mode extension : CM (complete main)
Format settings, Endianness : Big
Codec ID : 2000
Duration : 52mn 46s
Bit rate mode : Constant
Bit rate : 192 Kbps
Channel(s) : 2 channels
Channel positions : Front: L R
Sampling rate : 48.0 KHz
Frame rate : 31.250 fps (1536 spf)
Compression mode : Lossy
Stream size : 72.5 MiB (6%)
Alignment : Split accross interleaves
Interleave, duration : 40 ms (1.00 video frame)
Interleave, preload duratio : 500 ms
Audio #5
ID : 5
Format : AC-3
Format/Info : Audio Coding 3
Mode extension : CM (complete main)
Format settings, Endianness : Big
Codec ID : 2000
Duration : 52mn 46s
Bit rate mode : Constant
Bit rate : 192 Kbps
Channel(s) : 2 channels
Channel positions : Front: L R
Sampling rate : 48.0 KHz
Frame rate : 31.250 fps (1536 spf)
Compression mode : Lossy
Stream size : 72.5 MiB (6%)
Alignment : Split accross interleaves
Interleave, duration : 40 ms (1.00 video frame)
Interleave, preload duratio : 500 ms-
-

Скриншоты

--
-
[korsars.info].t21176.torrent 
Торрент: Зарегистрирован [ 2019-05-03 16:23 ] · C4E7C4815D93A048EED4090D0A73938E55059ECE

Скачать .torrent

Размер .torrent файла 23 KB

Статус: проверено
.torrent скачан: 4 раз
Размер: 4,29 GB
Правила
Похожие темы

[Профиль] [ЛС]
Показать сообщения:    
Ответить на тему

Текущее время: 19-Сен 06:07

Часовой пояс: UTC + 4



Вы не можете начинать темы
Вы не можете отвечать на сообщения
Вы не можете редактировать свои сообщения
Вы не можете удалять свои сообщения
Вы не можете голосовать в опросах
Вы не можете прикреплять файлы к сообщениям
Вы можете скачивать файлы
Анализ сайта korsars.info Яндекс.Метрика