Закат / Napszállta (Ласло Немеш) [2018, драма, WEB-DL 1080p от KORSAR | iTunes]

Ответить на тему
Статистика раздачи [Обновить пиров]
Размер:  5,53 GB   |    Зарегистрирован:  4 месяца 6 дней   |    .torrent скачан:  2 раза
Сидов:  13  [  0 KB/s  ]   Личеров:  4  [  0 KB/s  ]   Подробная статистика пиров
 
   
 
 
Автор Сообщение

Skorp10n ®

Оффлайн

Активный раздающий 1Активный раздающий 2Активный релизер 1000Активный релизер 1500
Активный релизер 2000Активный релизер 250Активный релизер 3000Активный релизер 500Активный релизер 5000Активный релизер Фильмов (1000)Активный релизер Фильмов (300)Активный релизер Фильмов (600)Активный Форумчанин 1Активный Форумчанин 2Активный Форумчанин 3Активный Форумчанин 4Друг трекераКарма 1000Карма 1500Карма 3000Карма 500МеценатНи дня без новостейОрденосец 1 степениОрденосец 2 степениОрденосец 3 степениПочетный орденосецПочетный репортерС Новым 2016 Годом!С Новым 2017 Годом!С Новым 2018 Годом!С Новым 2019 Годом!Супер Мега Контер КвейкТОП-10

Пол: Мужской

Стаж: 4 года 1 месяц

Наличие запрета:

Сообщений: 11658

Откуда: Free-Tor.com

Отдача: не определено

Загрузка: не определено

Нажми

Создавать темы 10-Май-2019 12:32

[Цитировать]

Информация о фильме- Название: Закат
Оригинальное название: Napszállta
Год выхода: 2018
Жанр: Драма
Режиссер: Ласло Немеш
В ролях: Эвелин Добош, Сюзанна Вуэст, Юли Якаб, Бьорн Фрайберг, Влад Иванов, Левенте Молнар, Юдит Бардош, Урс Рехн, Моника Бальшаи-О фильме: 1913 год, Будапешт, сердце Европы. Молодая полная решимости Ирис Лейтер приезжает в столицу Венгрии. Она пытается устроиться на работу в качестве модистки в легендарный шляпный магазин, который когда-то принадлежал ее покойным родителям. Новый владелец выгоняет бывшую наследницу, ставшую жертвой жестоких интриг. Ирис отказывается покинуть город и начинает собственное расследование тайн прошлого на темных улицах Будапешта в канун Первой мировой войны.- -Выпущено: Венгрия, Франция, Laokoon Filmgroup, Playtime, Hungarian National Film Fund
Продолжительность: 02:21:29
Перевод: Профессиональный (многоголосый, закадровый) | iTunes-Файл-Качество: WEB-DL 1080p
Контейнер: MKV
Видео: MPEG-4 AVC, 1920x1080, 5105 Кбит/с, 24.000 fps
Аудио: Russian: 48 kHz, AC3, 5.1 ch, 384 Kbps - iTunes
Субтитры: Нет-Релиз от: -

Скриншоты

--
-

MediaInfo

-General
Unique ID : 197296370609385575043355678153068734193 (0x946DE6184078B9DB987168B5003366F1)
Complete name : Закат_2018-WEB-DL 1080p_KORSAR.mkv
Format : Matroska
Format version : Version 2
File size : 5.53 GiB
Duration : 2 h 21 min
Overall bit rate : 5 601 kb/s
Encoded date : UTC 2019-05-06 08:58:03
Writing application : mkvmerge v7.8.0 ('River Man') 32bit built on Mar 27 2015 16:18:02
Writing library : libebml v1.3.1 + libmatroska v1.4.2
Video
ID : 1
Format : AVC
Format/Info : Advanced Video Codec
Format profile : [email protected]
Format settings, CABAC : Yes
Format settings, RefFrames : 4 frames
Format settings, GOP : N=1
Codec ID : V_MPEG4/ISO/AVC
Duration : 2 h 21 min
Bit rate : 5 105 kb/s
Width : 1 920 pixels
Height : 1 080 pixels
Display aspect ratio : 16:9
Frame rate mode : Constant
Frame rate : 24.000 FPS
Color space : YUV
Chroma subsampling : 4:2:0
Bit depth : 8 bits
Scan type : Progressive
Bits/(Pixel*Frame) : 0.103
Stream size : 5.05 GiB (91%)
Title : Закат / Napszállta 2018
Language : Hungarian
Default : Yes
Forced : No
Color range : Limited
Color primaries : BT.709
Transfer characteristics : BT.709
Matrix coefficients : BT.709
Audio
ID : 2
Format : AC-3
Format/Info : Audio Coding 3
Format settings, Endianness : Big
Codec ID : A_AC3
Duration : 2 h 21 min
Bit rate mode : Constant
Bit rate : 384 kb/s
Channel(s) : 6 channels
Channel positions : Front: L C R, Side: L R, LFE
Sampling rate : 48.0 kHz
Frame rate : 31.250 FPS (1536 SPF)
Bit depth : 16 bits
Compression mode : Lossy
Stream size : 389 MiB (7%)
Title : MVO, iTunes
Language : Russian
Service kind : Complete Main
Default : Yes
Forced : No-
-
[korsars.info].t21278.torrent 
Торрент: Зарегистрирован [ 2019-05-10 12:32 ] · B7DAAEE66D76B8D61C2EC10895E23DD54B8BE3BF

Скачать .torrent

Скачать .torrent

29 KB

Статус: проверено
.torrent скачан: 2 раз
Размер: 5,53 GB
Правила
Похожие темы

[Профиль] [ЛС]
Показать сообщения:    
Ответить на тему

Текущее время: 17-Сен 02:26

Часовой пояс: UTC + 4



Вы не можете начинать темы
Вы не можете отвечать на сообщения
Вы не можете редактировать свои сообщения
Вы не можете удалять свои сообщения
Вы не можете голосовать в опросах
Вы не можете прикреплять файлы к сообщениям
Вы можете скачивать файлы
Анализ сайта korsars.info Яндекс.Метрика