Стёртая личность / Boy Erased (Джоэл Эдгертон) [2018, драма, биография, BDRip 1080p | Лицензия]

Ответить на тему
Статистика раздачи [Обновить пиров]
Размер:  13,12 GB   |    Зарегистрирован:  2 месяца 6 дней   |    .torrent скачан:  4 раза
Сидов:  55  [  0 KB/s  ]   Личеров:  7  [  0 KB/s  ]   Подробная статистика пиров
 
   
 
 
Автор Сообщение

Skorp10n ®

Оффлайн

 Активный раздающий 1 Активный раздающий 2
 Активный релизер 1000 Активный релизер 1500 Активный релизер 2000 Активный релизер 250 Активный релизер 3000 Активный релизер 500 Активный релизер 5000 Активный релизер Фильмов (1000) Активный релизер Фильмов (300) Активный релизер Фильмов (600) Активный Форумчанин 1 Активный Форумчанин 2 Активный Форумчанин 3 Активный Форумчанин 4 Друг трекера Карма 1000 Карма 1500 Карма 3000 Карма 500 Меценат Ни дня без новостей Орденосец 1 степени Орденосец 2 степени Орденосец 3 степени Почетный орденосец Почетный репортер С Новым 2016 Годом! С Новым 2017 Годом! С Новым 2018 Годом! С Новым 2019 Годом! Супер Мега Контер Квейк ТОП-10

Пол: Мужской

Стаж: 3 года 11 месяцев

Наличие запрета:

Сообщений: 10871

Откуда: Free-Tor.com

Отдача: не определено

Загрузка: не определено

Нажми

Создавать темы 12-Май-2019 11:31

[Цитировать]

«Суть нельзя изменить»-Информация о фильме- Название: Стёртая личность
Оригинальное название: Boy Erased
Год выхода: 2018
Жанр: Драма, биография
Режиссер: Джоэл Эдгертон
В ролях: Лукас Хеджес, Николь Кидман, Расселл Кроу, Мэдлин Клайн, Виктор МакКэй, Дэвид Джозеф Крэйг, Трой Сиван, Эмили Хинклер, Девин Майкл, Мэтт Бурк-О фильме:-История сына баптистского пастора из консервативной глубинки, который ещё подростком обнаруживает свою гомосексуальность. По настоянию родителей Гаррард соглашается пройти «исправительную» терапию, чтобы не потерять своих близких, свою веру и место в обществе.- -Страна: Австралия, США
Студия: Anonymous Content, Blue-Tongue Films, Focus Features, Perfect World Pictures
Продолжительность: 01:54:46
Перевод:
Профессиональный (полное дублирование) | Лицензия | Blu-ray CEE-Файл-Качество: BDRip 1080p
Формат: MKV
Кодек: MPEG-4 AVC
Видео: 1920x1038 (1,85:1), 23,976 fps, MPEG-4 AVC ~ 14,4 Мbps avg, 0.302 bit/pixel bit/pixel
Аудио: AC3, 48 kHz, 6 ch, ~448.00 kbps avg | русский | Blu-ray CEE
Аудио: DTS, 48 kHz, 6 ch, ~1509.00.00 kbps avg | английский | Оригинал-Субтитры: Русские (форс.), русские (Blu-ray CEE), русские (Focs), английские (Full), английские (Full)-

Инфо-файл

-Общее
Уникальный идентификатор : 315956508473037676011189684230802956105 (0xEDB302948D5B2EFF511DFAC5894CDF49)
Полное имя : Boy.Erased.2018.1080p.BluRay.x264.DD.5.1.Rus.Eng.mkv
Формат : Matroska
Версия формата : Version 4 / Version 2
Размер файла : 13,1 Гбайт
Продолжительность : 1 ч. 54 м.
Общий поток : 16,4 Мбит/сек
Название фильма : Стёртая личность / Boy Erased (2018)
Дата кодирования : UTC 2019-05-08 19:20:43
Программа кодирования : mkvmerge v27.0.0 ('Metropolis') 64-bit
Библиотека кодирования : libebml v1.3.6 + libmatroska v1.4.9
Обложка : Yes
Attachments : cover.jpg
Видео
Идентификатор : 1
Формат : AVC
Формат/Информация : Advanced Video Codec
Профиль формата : [email protected]
Настройки формата : CABAC / 4 Ref Frames
Параметр CABAC формата : Да
Параметр RefFrames формата : 4 кадра
Идентификатор кодека : V_MPEG4/ISO/AVC
Продолжительность : 1 ч. 54 м.
Битрейт : 14,4 Мбит/сек
Ширина : 1920 пикселей
Высота : 1038 пикселей
Соотношение сторон : 1,85:1
Режим частоты кадров : Постоянный
Частота кадров : 23,976 (24000/1001) кадра/сек
Цветовое пространство : YUV
Субдискретизация насыщенности : 4:2:0
Битовая глубина : 8 бит
Тип развёртки : Прогрессивная
Бит/(Пиксели*Кадры) : 0.302
Размер потока : 11,6 Гбайт (88%)
Заголовок : WiKi
Библиотека кодирования : x264 core 155 r2867+82 a249126 t_mod_Custom_2 [[email protected] X86_64]
Настройки программы : cabac=1 / ref=4 / deblock=1:-3:-3 / analyse=0x3:0x133 / me=umh / subme=10 / psy=1 / fade_compensate=0.00 / psy_rd=1.00:0.00 / mixed_ref=1 / me_range=32 / chroma_me=1 / trellis=2 / 8x8dct=1 / cqm=0 / deadzone=21,11 / fast_pskip=0 / chroma_qp_offset=-2 / threads=12 / lookahead_threads=2 / sliced_threads=0 / nr=0 / decimate=0 / interlaced=0 / bluray_compat=0 / constrained_intra=0 / fgo=0 / bframes=8 / b_pyramid=2 / b_adapt=2 / b_bias=0 / direct=3 / weightb=1 / open_gop=0 / weightp=2 / keyint=250 / keyint_min=23 / scenecut=40 / intra_refresh=0 / rc_lookahead=60 / rc=crf / mbtree=0 / crf=17.5000 / qcomp=0.60 / qpmin=0:0:0 / qpmax=69:69:69 / qpstep=4 / vbv_maxrate=62500 / vbv_bufsize=78125 / crf_max=0.0 / nal_hrd=none / filler=0 / ip_ratio=1.25 / pb_ratio=1.15 / aq=3:0.85 / aq-sensitivity=10.00 / aq-factor=1.00:1.00:1.00 / aq2=0 / aq3=0
Язык : English
Default : Да
Forced : Нет
Аудио #1
Идентификатор : 2
Формат : AC-3
Формат/Информация : Audio Coding 3
Идентификатор кодека : A_AC3
Продолжительность : 1 ч. 54 м.
Вид битрейта : Постоянный
Битрейт : 448 Кбит/сек
Каналы : 6 каналов
Расположение каналов : Front: L C R, Side: L R, LFE
Частота : 48,0 КГц
Частота кадров : 31,250 кадров/сек (1536 SPF)
Битовая глубина : 16 бит
Метод сжатия : С потерями
Размер потока : 368 Мбайт (3%)
Заголовок : Dub | DD 5.1 @ 448 kbps - Blu-ray CEE
Язык : Russian
Default : Да
Forced : Нет
Аудио #2
Идентификатор : 3
Формат : DTS
Формат/Информация : Digital Theater Systems
Идентификатор кодека : A_DTS
Продолжительность : 1 ч. 54 м.
Вид битрейта : Постоянный
Битрейт : 1509 Кбит/сек
Каналы : 6 каналов
Расположение каналов : Front: L C R, Side: L R, LFE
Частота : 48,0 КГц
Частота кадров : 93,750 кадра/сек (512 SPF)
Битовая глубина : 24 бит
Метод сжатия : С потерями
Размер потока : 1,21 Гбайт (9%)
Язык : English
Default : Нет
Forced : Нет
Текст #1
Идентификатор : 4
Формат : UTF-8
Идентификатор кодека : S_TEXT/UTF8
Идентификатор кодека/Информация : UTF-8 Plain Text
Продолжительность : 1 ч. 52 м.
Битрейт : 1 бит/сек
ElementCount : 26
Размер потока : 1,33 Кбайт (0%)
Заголовок : Forced
Язык : Russian
Default : Да
Forced : Нет
Текст #2
Идентификатор : 5
Формат : UTF-8
Идентификатор кодека : S_TEXT/UTF8
Идентификатор кодека/Информация : UTF-8 Plain Text
Продолжительность : 1 ч. 54 м.
Битрейт : 69 бит/сек
ElementCount : 1245
Размер потока : 57,7 Кбайт (0%)
Заголовок : Blu-ray CEE
Язык : Russian
Default : Нет
Forced : Нет
Текст #3
Идентификатор : 6
Формат : UTF-8
Идентификатор кодека : S_TEXT/UTF8
Идентификатор кодека/Информация : UTF-8 Plain Text
Продолжительность : 1 ч. 48 м.
Битрейт : 91 бит/сек
ElementCount : 1393
Размер потока : 72,7 Кбайт (0%)
Заголовок : Focs
Язык : English
Default : Нет
Forced : Нет
Текст #4
Идентификатор : 7
Формат : UTF-8
Идентификатор кодека : S_TEXT/UTF8
Идентификатор кодека/Информация : UTF-8 Plain Text
Продолжительность : 1 ч. 45 м.
Битрейт : 54 бит/сек
ElementCount : 1230
Размер потока : 42,1 Кбайт (0%)
Заголовок : Full
Язык : English
Default : Нет
Forced : Нет
Текст #5
Идентификатор : 8
Формат : UTF-8
Идентификатор кодека : S_TEXT/UTF8
Идентификатор кодека/Информация : UTF-8 Plain Text
Продолжительность : 1 ч. 45 м.
Битрейт : 58 бит/сек
ElementCount : 1354
Размер потока : 45,7 Кбайт (0%)
Заголовок : SDH
Язык : English
Default : Нет
Forced : Нет
Меню
00:00:00.000 : en:Chapter 01
00:04:40.405 : en:Chapter 02
00:10:40.056 : en:Chapter 03
00:18:15.886 : en:Chapter 04
00:22:47.783 : en:Chapter 05
00:30:43.800 : en:Chapter 06
00:42:08.359 : en:Chapter 07
00:46:27.701 : en:Chapter 08
00:53:50.518 : en:Chapter 09
00:57:50.800 : en:Chapter 10
01:02:15.565 : en:Chapter 11
01:06:35.074 : en:Chapter 12
01:11:49.847 : en:Chapter 13
01:15:43.997 : en:Chapter 14
01:20:59.521 : en:Chapter 15
01:25:29.124 : en:Chapter 16
01:29:59.852 : en:Chapter 17
01:34:30.081 : en:Chapter 18
01:41:24.328 : en:Chapter 19
01:48:41.181 : en:Chapter 20-
-

Скриншоты

--
-
[korsars.info].t21291.torrent 
Торрент: Зарегистрирован [ 2019-05-12 11:33 ] · A911C270C85F531007A2023DD7D05B72436A3403

Скачать .torrent

Скачать .torrent

34 KB

Статус: проверено
.torrent скачан: 4 раз
Размер: 13,12 GB
Правила
Похожие темы

[Профиль] [ЛС]
Показать сообщения:    
Ответить на тему

Текущее время: 18-Июл 13:35

Часовой пояс: UTC + 4



Вы не можете начинать темы
Вы не можете отвечать на сообщения
Вы не можете редактировать свои сообщения
Вы не можете удалять свои сообщения
Вы не можете голосовать в опросах
Вы не можете прикреплять файлы к сообщениям
Вы можете скачивать файлы
Анализ сайта korsars.info Яндекс.Метрика