Ничего себе каникулы! / Premières vacances (Патрик Кассир) [2018, комедия, WEB-DL 1080p | P]

Ответить на тему
Статистика раздачи [Обновить пиров]
Размер:  3,48 GB   |    Зарегистрирован:  5 месяцев 8 дней   |    .torrent скачан:  14 раз
Сидов:  84  [  0 KB/s  ]   Подробная статистика пиров
 
   
 
 
Автор Сообщение

Skorp10n ®

Оффлайн

Активный раздающий 1Активный раздающий 2Активный релизер 1000Активный релизер 1500
Активный релизер 2000Активный релизер 250Активный релизер 3000Активный релизер 500Активный релизер 5000Активный релизер Фильмов (1000)Активный релизер Фильмов (300)Активный релизер Фильмов (600)Активный Форумчанин 1Активный Форумчанин 2Активный Форумчанин 3Активный Форумчанин 4Друг трекераКарма 1000Карма 1500Карма 3000Карма 500МеценатНи дня без новостейОрденосец 1 степениОрденосец 2 степениОрденосец 3 степениПочетный орденосецПочетный репортерС Новым 2016 Годом!С Новым 2017 Годом!С Новым 2018 Годом!С Новым 2019 Годом!Супер Мега Контер КвейкТОП-10

Пол: Мужской

Стаж: 4 года 2 месяца

Наличие запрета:

Сообщений: 11662

Откуда: korsars.info

Отдача: 2 Mb/s

Загрузка: 20 Mb/s

Нажми

Создавать темы 13-Май-2019 12:35

[Цитировать]

Информация о фильме- Название: Ничего себе каникулы!
Оригинальное название: Premières vacances
Год выхода: 2018
Жанр: Комедия
Режиссер: Патрик Кассир
В ролях: Джонатан Коэн, Камиль Шаму, Камилль Коттен, Жереми Элькайм, Венсан Дедьен, Доминик Валадье, Svetlana Gergova, Бар Леви, Саги Альперин, Александр Алексеев (XIII)-О фильме:-Марион — развязная и свободная, ей за тридцать, она самодостаточна и не слишком разборчива в связях. Знакомиться с парнями в Tinder для нее привычное дело. Бен — серьезный мужчина, слово «рутина» ему хорошо знакомо, и он не слишком опытен в плане знакомств по интернету. Возраст, город Париж и приложение Tinder в телефонах — больше ничего общего между ними нет. Но происходит Match, и эти двое влюбляются друг в друга на первом же свидании. Обезумев от спонтанной радости, они тут же решают отправиться в совместный отпуск. В Болгарию. Дикарями. Как скоро они обнаружат, что их представления об идеальных каникулах, мягко говоря, не совпадают?- -Страна: Франция
Студия: Canal+ [fr], The Film, Le Pacte, NJJ Entertainment
Продолжительность: 01:37:30
Перевод: Профессиональный многоголосый | Студия "Мельница"-Файл-Кодек: AVC
Качество: WEB-DL 1080p
Видео: MPEG-4 AVC, 4530 Kбит/с, 1912x800, 25.000 кадр/с
Звук: ► Без Рекламы!
Аудио #1: Русский (АС3, 2ch, 192 Кбит/с, 48.0 KHz) Профессиональный (многоголосый, закадровый) Студия "Мельница"
Аудио #2: Французский (АС3, 6ch, 384 Кбит/с, 48.0 KHz)
Субтитры: нет-

MediaInfo

-Источник: Premieres.Vacances.2018.FRENCH.1080p.WEB-DL.H264-PREUMS
General
Unique ID : 229736850698578337513417710494096822755 (0xACD5B54013457E3DA9C93166459C11E3)
Complete name : Premieres.Vacances.2018.WEB-DL.1080p.mkv
Format : Matroska
Format version : Version 4 / Version 2
File size : 3.48 GiB
Duration : 1 h 37 min
Overall bit rate : 5 107 kb/s
Encoded date : UTC 2019-05-08 13:45:28
Writing application : mkvmerge v7.1.0 ('Good Love') 64bit built on Jul 27 2014 13:06:55
Writing library : libebml v1.3.0 + libmatroska v1.4.1
Video
ID : 1
Format : AVC
Format/Info : Advanced Video Codec
Format profile : [email protected]
Format settings, CABAC : Yes
Format settings, RefFrames : 5 frames
Codec ID : V_MPEG4/ISO/AVC
Duration : 1 h 37 min
Bit rate : 4 530 kb/s
Width : 1 912 pixels
Height : 800 pixels
Display aspect ratio : 2.40:1
Frame rate mode : Constant
Frame rate : 25.000 FPS
Color space : YUV
Chroma subsampling : 4:2:0
Bit depth : 8 bits
Scan type : Progressive
Bits/(Pixel*Frame) : 0.118
Stream size : 3.08 GiB (89%)
Language : French
Default : Yes
Forced : No
Color range : Limited
Color primaries : BT.709
Transfer characteristics : BT.709
Matrix coefficients : BT.709
Audio #1
ID : 2
Format : AC-3
Format/Info : Audio Coding 3
Format settings, Endianness : Big
Codec ID : A_AC3
Duration : 1 h 37 min
Bit rate mode : Constant
Bit rate : 192 kb/s
Channel(s) : 2 channels
Channel positions : Front: L R
Sampling rate : 48.0 kHz
Frame rate : 31.250 FPS (1536 SPF)
Bit depth : 16 bits
Compression mode : Lossy
Stream size : 134 MiB (4%)
Title : MVO | Студия "Мельница"
Language : Russian
Service kind : Complete Main
Default : Yes
Forced : No
Audio #2
ID : 3
Format : AC-3
Format/Info : Audio Coding 3
Format settings, Endianness : Big
Codec ID : A_AC3
Duration : 1 h 37 min
Bit rate mode : Constant
Bit rate : 384 kb/s
Channel(s) : 6 channels
Channel positions : Front: L C R, Side: L R, LFE
Sampling rate : 48.0 kHz
Frame rate : 31.250 FPS (1536 SPF)
Bit depth : 16 bits
Compression mode : Lossy
Stream size : 268 MiB (8%)
Language : French
Service kind : Complete Main
Default : No
Forced : No
Menu
00:00:00.000 : en:Chapitre 01
00:09:00.000 : en:Chapitre 02
00:18:00.000 : en:Chapitre 03
00:27:00.000 : en:Chapitre 04
00:36:00.000 : en:Chapitre 05
00:45:00.000 : en:Chapitre 06
00:54:00.000 : en:Chapitre 07
01:03:00.000 : en:Chapitre 08
01:12:00.000 : en:Chapitre 09
01:21:00.000 : en:Chapitre 10-
-

Скриншоты

--
-
[korsars.info].t21311.torrent 
Торрент: Зарегистрирован [ 2019-05-13 12:35 ] · 42A90C09E5C7812C1BEA444494E1DBB54E1C3C3E

Скачать .torrent

Скачать .torrent

19 KB

Статус: проверено
.torrent скачан: 14 раз
Размер: 3,48 GB
Правила
Похожие темы

[Профиль] [ЛС]
Показать сообщения:    
Ответить на тему

Текущее время: 22-Окт 01:11

Часовой пояс: UTC + 4



Вы не можете начинать темы
Вы не можете отвечать на сообщения
Вы не можете редактировать свои сообщения
Вы не можете удалять свои сообщения
Вы не можете голосовать в опросах
Вы не можете прикреплять файлы к сообщениям
Вы можете скачивать файлы
Анализ сайта korsars.info Яндекс.Метрика