В объятиях лжи / Greta (Нил Джордан) [2018, ужасы, триллер, драма, детектив, WEB-DL 1080p от селезень | iTunes]

Ответить на тему
Статистика раздачи [Обновить пиров]
Размер:  3,64 GB   |    Зарегистрирован:  6 месяцев 30 дней   |    .torrent скачан:  10 раз
Сидов:  153  [  0 KB/s  ]   Личеров:  12  [  0 KB/s  ]   Подробная статистика пиров
 
   
 
 
Автор Сообщение

Skorp10n ®

Оффлайн

Активный раздающий 1Активный раздающий 2Активный релизер 1000Активный релизер 1500
Активный релизер 2000Активный релизер 250Активный релизер 3000Активный релизер 500Активный релизер 5000Активный релизер Фильмов (1000)Активный релизер Фильмов (300)Активный релизер Фильмов (600)Активный Форумчанин 1Активный Форумчанин 2Активный Форумчанин 3Активный Форумчанин 4Друг трекераКарма 1000Карма 1500Карма 3000Карма 500МеценатНи дня без новостейОрденосец 1 степениОрденосец 2 степениОрденосец 3 степениПочетный орденосецПочетный репортерС Новым 2016 Годом!С Новым 2017 Годом!С Новым 2018 Годом!С Новым 2019 Годом!Супер Мега Контер КвейкТОП-10

Пол: Мужской

Стаж: 4 года 4 месяца

Наличие запрета:

Сообщений: 11681

Откуда: korsars.info

Отдача: 2 Mb/s

Загрузка: 20 Mb/s

Нажми

Создавать темы 15-Май-2019 12:05

[Цитировать]

Информация о фильме- Название: В объятиях лжи
Оригинальное название: Greta
Год выхода: 2018
Жанр: Ужасы, триллер, драма, детектив
Режиссер: Нил Джордан
В ролях: Изабель Юппер, Хлоя Грейс Морец, Майка Монро, Джейн Перри, Джефф Хиллер, Паркер Сойерс, Брэндон Ли Сирс, Артур Ли, Роза Эскода, Джессика Предди- -О фильме: Одинокая девушка, недавно переехавшая на Манхэттен, случайно встречается с загадочной вдовой. Между ними завязывается дружба, и необычная знакомая окружает юную подругу вниманием и заботой. Но вскоре одна из них поймет, что оказалась в объятиях лжи…-Страна: Ирландия, США
Студия: Sidney Kimmel Entertainment, Lawrence Bender Productions, Little Wave Productions
Продолжительность: 01:38:15
Перевод: Дублированный | iTunes-Качество: WEB-DL 1080p
Видео: MPEG-4 AVC, 1920x804, 4539 Kbit/s, 24 fps
Звук:
Аудио #01: 48 kHz, AC3, 5.1, 384 Kbps | iTunes | RUS |
Аудио #02: 48 kHz, AC3, 5.1, 384 Kbps | iTunes | UKR |
Субтитры: Русские (Full)-

Скриншоты

--
-

MI

-General
Unique ID : 147987348462133604893301915942926537193 (0x6F55539AB49E0889BE759407D07DD1E9)
Complete name : D:Video111Greta.2019.WEB-DL.1080p.seleZen.mkv
Format : Matroska
Format version : Version 4
File size : 3.64 GiB
Duration : 1 h 38 min
Overall bit rate : 5 310 kb/s
Movie name : Greta 2019 from селезень
Encoded date : UTC 2019-05-13 19:59:33
Writing application : mkvmerge v33.1.0 ('Primrose') 64-bit
Writing library : libebml v1.3.7 + libmatroska v1.5.0
Video
ID : 1
Format : AVC
Format/Info : Advanced Video Codec
Format profile : [email protected]
Format settings : CABAC / 5 Ref Frames
Format settings, CABAC : Yes
Format settings, Reference : 5 frames
Codec ID : V_MPEG4/ISO/AVC
Duration : 1 h 38 min
Bit rate : 4 539 kb/s
Width : 1 920 pixels
Height : 804 pixels
Display aspect ratio : 2.40:1
Frame rate mode : Constant
Frame rate : 24.000 FPS
Color space : YUV
Chroma subsampling : 4:2:0
Bit depth : 8 bits
Scan type : Progressive
Bits/(Pixel*Frame) : 0.123
Stream size : 3.12 GiB (85%)
Language : English
Default : Yes
Forced : No
Color range : Limited
Color primaries : BT.709
Transfer characteristics : BT.709
Matrix coefficients : BT.709
Audio #1
ID : 2
Format : AC-3
Format/Info : Audio Coding 3
Commercial name : Dolby Digital
Codec ID : A_AC3
Duration : 1 h 38 min
Bit rate mode : Constant
Bit rate : 384 kb/s
Channel(s) : 6 channels
Channel layout : L R C LFE Ls Rs
Sampling rate : 48.0 kHz
Frame rate : 31.250 FPS (1536 SPF)
Bit depth : 16 bits
Compression mode : Lossy
Stream size : 270 MiB (7%)
Title : iTunes
Language : Russian
Service kind : Complete Main
Default : Yes
Forced : Yes
Audio #2
ID : 3
Format : AC-3
Format/Info : Audio Coding 3
Commercial name : Dolby Digital
Codec ID : A_AC3
Duration : 1 h 38 min
Bit rate mode : Constant
Bit rate : 384 kb/s
Channel(s) : 6 channels
Channel layout : L R C LFE Ls Rs
Sampling rate : 48.0 kHz
Frame rate : 31.250 FPS (1536 SPF)
Bit depth : 16 bits
Compression mode : Lossy
Stream size : 270 MiB (7%)
Title : iTunes
Language : Ukrainian
Service kind : Complete Main
Default : No
Forced : No
Text
ID : 4
Format : UTF-8
Codec ID : S_TEXT/UTF8
Codec ID/Info : UTF-8 Plain Text
Duration : 1 h 31 min
Bit rate : 63 b/s
Count of elements : 802
Stream size : 43.1 KiB (0%)
Title : Full
Language : Russian
Default : No
Forced : No
Menu
00:00:00.000 : en:Chapter 1
00:05:14.083 : en:Chapter 2
00:10:17.333 : en:Chapter 3
00:16:57.874 : en:Chapter 4
00:23:03.165 : en:Chapter 5
00:33:27.998 : en:Chapter 6
00:43:00.331 : en:Chapter 7
00:50:17.664 : en:Chapter 8
00:55:44.289 : en:Chapter 9
01:07:20.122 : en:Chapter 10
01:12:32.122 : en:Chapter 11
01:16:35.788 : en:Chapter 12
01:24:15.871 : en:Chapter 13-
-Релиз: -
[korsars.info].t21343.torrent 
Торрент: Зарегистрирован [ 2019-05-15 12:05 ] · BDABD171FC3E7A548A4AAA636999954C8563EB29

Скачать .torrent

Скачать .torrent

6 KB

Статус: проверено
.torrent скачан: 10 раз
Размер: 3,64 GB
Правила
Похожие темы

[Профиль] [ЛС]
Показать сообщения:    
Ответить на тему

Текущее время: 14-Дек 20:27

Часовой пояс: UTC + 4



Вы не можете начинать темы
Вы не можете отвечать на сообщения
Вы не можете редактировать свои сообщения
Вы не можете удалять свои сообщения
Вы не можете голосовать в опросах
Вы не можете прикреплять файлы к сообщениям
Вы можете скачивать файлы
Анализ сайта korsars.info Яндекс.Метрика