Последствия / The Aftermath (Джеймс Кент) [2019, драма, мелодрама, военный, WEB-DL 1080p от селезень | iTunes]

Ответить на тему
 
Автор Сообщение

Skorp10n ®

Оффлайн

Активный раздающий 1Активный раздающий 2Активный релизер 1000Активный релизер 1500
Активный релизер 2000Активный релизер 250Активный релизер 3000Активный релизер 500Активный релизер 5000Активный релизер Фильмов (1000)Активный релизер Фильмов (300)Активный релизер Фильмов (600)Активный Форумчанин 1Активный Форумчанин 2Активный Форумчанин 3Активный Форумчанин 4Друг трекераКарма 1000Карма 1500Карма 3000Карма 500МеценатНи дня без новостейОрденосец 1 степениОрденосец 2 степениОрденосец 3 степениПочетный орденосецПочетный репортерС Новым 2016 Годом!С Новым 2017 Годом!С Новым 2018 Годом!С Новым 2019 Годом!Супер Мега Контер КвейкТОП-10

Пол: Мужской

Стаж: 4 года 4 месяца

Наличие запрета:

Сообщений: 11681

Откуда: korsars.info

Отдача: 2 Mb/s

Загрузка: 20 Mb/s

Нажми

Создавать темы 14-Июн-2019 13:42

[Цитировать]

Информация о фильме- Название: Последствия
Оригинальное название: The Aftermath
Год выхода: 2019
Жанр: Драма, мелодрама, военный
Режиссер: Джеймс Кент
В ролях: Кира Найтли, Александр Скарсгард, Джейсон Кларк, Фионн О’Ши, Кейт Филлипс, Мартин Компстон, Александр Шеер, Анна Катарина Шримригк, Нед Виллс, Пандора Колин- -О фильме: Германия после Второй мировой войны. В стране беспорядок, разруха, голод. Главный герой — британский военный Льюис Морган, который назначен временным мэром Гамбурга. Ему предстоит восстанавливать город почти с нуля. Вместе с женой Льюис селится в роскошный особняк, где живет немецкий архитектор с эмоционально нестабильной дочерью. Смогут ли бывшие враги ужиться под одной крышей или желание отомстить будет сильнее?-Страна: Великобритания, Германия, США
Студия: Amusement Park Films, Fox Searchlight Pictures, Scott Free Productions
Продолжительность: 01:49:15
Перевод: Дублированный | iTunes-Качество: WEB-DL 1080p
Видео: MPEG-4 AVC, 1920x1038, 5136 Kbit/s, 23.976 fps
Звук:
Аудио #01: 48 kHz, AC3, 5.1, 384 Kbps | iTunes | RUS |
Аудио #02: 48 kHz, AAC, 2.0, 123 Kbps | iTunes | UKR |
Аудио #03: 48 kHz, AC3, 5.1, 384 Kbps | Оригинал | ENG |
Субтитры: Русские (forced, full), украинские (forced, full), английские-

Скриншоты

--
-

MI

-General
Unique ID : 31857886686717949263737585214683642032 (0x17F79B1548244C6D61C657D0A4A878B0)
Complete name : D:Video111The.Aftermath.2019.WEB-DL.1080p.seleZen.mkv
Format : Matroska
Format version : Version 4
File size : 4.60 GiB
Duration : 1 h 49 min
Overall bit rate : 6 026 kb/s
Movie name : The Aftermath 2019 from селезень
Encoded date : UTC 2019-06-14 06:13:29
Writing application : mkvmerge v33.1.0 ('Primrose') 64-bit
Writing library : libebml v1.3.7 + libmatroska v1.5.0
Video
ID : 1
Format : AVC
Format/Info : Advanced Video Codec
Format profile : [email protected]
Format settings : CABAC / 4 Ref Frames
Format settings, CABAC : Yes
Format settings, Reference : 4 frames
Codec ID : V_MPEG4/ISO/AVC
Duration : 1 h 49 min
Bit rate : 5 136 kb/s
Width : 1 920 pixels
Height : 1 038 pixels
Display aspect ratio : 1.85:1
Frame rate mode : Constant
Frame rate : 23.976 FPS
Color space : YUV
Chroma subsampling : 4:2:0
Bit depth : 8 bits
Scan type : Progressive
Bits/(Pixel*Frame) : 0.107
Stream size : 3.92 GiB (85%)
Language : English
Default : Yes
Forced : No
Color range : Limited
Color primaries : BT.709
Transfer characteristics : BT.709
Matrix coefficients : BT.709
Audio #1
ID : 2
Format : AC-3
Format/Info : Audio Coding 3
Commercial name : Dolby Digital
Codec ID : A_AC3
Duration : 1 h 48 min
Bit rate mode : Constant
Bit rate : 384 kb/s
Channel(s) : 6 channels
Channel layout : L R C LFE Ls Rs
Sampling rate : 48.0 kHz
Frame rate : 31.250 FPS (1536 SPF)
Bit depth : 16 bits
Compression mode : Lossy
Stream size : 298 MiB (6%)
Title : iTunes
Language : Russian
Service kind : Complete Main
Default : Yes
Forced : Yes
Audio #2
ID : 3
Format : AAC LC
Format/Info : Advanced Audio Codec Low Complexity
Codec ID : A_AAC-2
Duration : 1 h 48 min
Bit rate : 123 kb/s
Channel(s) : 2 channels
Channel layout : L R
Sampling rate : 44.1 kHz
Frame rate : 43.066 FPS (1024 SPF)
Compression mode : Lossy
Stream size : 95.9 MiB (2%)
Title : iTunes
Language : Ukrainian
Default : No
Forced : No
Audio #3
ID : 4
Format : AC-3
Format/Info : Audio Coding 3
Commercial name : Dolby Digital
Codec ID : A_AC3
Duration : 1 h 48 min
Bit rate mode : Constant
Bit rate : 384 kb/s
Channel(s) : 6 channels
Channel layout : L R C LFE Ls Rs
Sampling rate : 48.0 kHz
Frame rate : 31.250 FPS (1536 SPF)
Bit depth : 16 bits
Compression mode : Lossy
Stream size : 298 MiB (6%)
Title : Original
Language : English
Service kind : Complete Main
Default : No
Forced : No
Text #1
ID : 5
Format : UTF-8
Codec ID : S_TEXT/UTF8
Codec ID/Info : UTF-8 Plain Text
Duration : 1 h 42 min
Bit rate : 3 b/s
Count of elements : 80
Stream size : 2.74 KiB (0%)
Title : Forced
Language : Russian
Default : Yes
Forced : Yes
Text #2
ID : 6
Format : UTF-8
Codec ID : S_TEXT/UTF8
Codec ID/Info : UTF-8 Plain Text
Duration : 1 h 47 min
Bit rate : 44 b/s
Count of elements : 837
Stream size : 35.0 KiB (0%)
Title : Full
Language : Russian
Default : No
Forced : No
Text #3
ID : 7
Format : UTF-8
Codec ID : S_TEXT/UTF8
Codec ID/Info : UTF-8 Plain Text
Duration : 1 h 31 min
Bit rate : 3 b/s
Count of elements : 75
Stream size : 2.46 KiB (0%)
Title : Forced
Language : Ukrainian
Default : No
Forced : No
Text #4
ID : 8
Format : UTF-8
Codec ID : S_TEXT/UTF8
Codec ID/Info : UTF-8 Plain Text
Duration : 1 h 47 min
Bit rate : 92 b/s
Count of elements : 835
Stream size : 72.5 KiB (0%)
Title : Full
Language : Ukrainian
Default : No
Forced : No
Text #5
ID : 9
Format : UTF-8
Codec ID : S_TEXT/UTF8
Codec ID/Info : UTF-8 Plain Text
Duration : 1 h 39 min
Bit rate : 31 b/s
Count of elements : 949
Stream size : 22.8 KiB (0%)
Title : Full
Language : English
Default : No
Forced : No
Menu
00:00:00.000 : en:Chapter 01
00:03:59.197 : en:Chapter 02
00:10:36.385 : en:Chapter 03
00:14:20.150 : en:Chapter 04
00:17:50.777 : en:Chapter 05
00:22:39.524 : en:Chapter 06
00:27:49.876 : en:Chapter 07
00:35:08.522 : en:Chapter 08
00:37:10.018 : en:Chapter 09
00:41:32.070 : en:Chapter 10
00:46:28.073 : en:Chapter 11
00:49:58.866 : en:Chapter 12
00:56:02.688 : en:Chapter 13
01:02:04.673 : en:Chapter 14
01:04:48.627 : en:Chapter 15
01:09:00.252 : en:Chapter 16
01:15:58.294 : en:Chapter 17
01:19:47.022 : en:Chapter 18
01:22:08.037 : en:Chapter 19
01:27:00.495 : en:Chapter 20
01:29:35.774 : en:Chapter 21
01:33:38.600 : en:Chapter 22
01:39:15.018 : en:Chapter 23
01:42:46.854 : en:Chapter 24-
-Релиз: -
[Профиль] [ЛС]
Показать сообщения:    
Ответить на тему

Текущее время: 12-Дек 02:37

Часовой пояс: UTC + 4



Вы не можете начинать темы
Вы не можете отвечать на сообщения
Вы не можете редактировать свои сообщения
Вы не можете удалять свои сообщения
Вы не можете голосовать в опросах
Вы не можете прикреплять файлы к сообщениям
Вы можете скачивать файлы
Анализ сайта korsars.info Яндекс.Метрика