Сирано. Успеть до премьеры / Edmond (Алексис Михалик) [2018, драма, комедия, история, BDRip 1080p от селезень | iTunes]

Ответить на тему
 
Автор Сообщение

Skorp10n ®

Оффлайн

Активный раздающий 1Активный раздающий 2Активный релизер 1000Активный релизер 1500
Активный релизер 2000Активный релизер 250Активный релизер 3000Активный релизер 500Активный релизер 5000Активный релизер Фильмов (1000)Активный релизер Фильмов (300)Активный релизер Фильмов (600)Активный Форумчанин 1Активный Форумчанин 2Активный Форумчанин 3Активный Форумчанин 4Друг трекераКарма 1000Карма 1500Карма 3000Карма 500МеценатНи дня без новостейОрденосец 1 степениОрденосец 2 степениОрденосец 3 степениПочетный орденосецПочетный репортерС Новым 2016 Годом!С Новым 2017 Годом!С Новым 2018 Годом!С Новым 2019 Годом!Супер Мега Контер КвейкТОП-10

Пол: Мужской

Стаж: 4 года 2 месяца

Наличие запрета:

Сообщений: 11662

Откуда: korsars.info

Отдача: 2 Mb/s

Загрузка: 20 Mb/s

Нажми

Создавать темы 15-Июн-2019 12:02

[Цитировать]

Информация о фильме- Название: Сирано. Успеть до премьеры
Оригинальное название: Edmond
Год выхода: 2018
Жанр: Драма, комедия, история
Режиссер: Алексис Михалик
В ролях: Тома Соливерес, Оливье Гурме, Матильда Сенье, Том Либ, Люси Бужена, Элис де Ланкесэ, Клементин Селарье, Игорь Готсман, Доминик Пинон, Симон Абкарян- -О фильме: Декабрь 1897 года, Париж. Эдмону Ростану нет и тридцати, а у него двое детей, которых надо кормить и одевать. Прошло уже два года, как он не может ничего написать. В отчаянии он обещает своему патрону принести новую грандиозную и уморительную пьесу в стихах. Обрадованный патрон назначает дату премьеры. Проблема в том, что у Эдмона пока есть только одно название. Он непременно должен уложиться в строки, игнорируя капризы актрис, идиотские требования продюсеров, ревность собственной жены, любовные аферы его лучшего друга, и, несмотря на тот факт, что в его успех не верит никто, включая его самого.-Страна: Франция, Бельгия
Студия: Légende Films, Gaumont, France 2 Cinéma
Продолжительность: 01:52:16
Перевод: Профессиональный многоголосый | iTunes-Качество: BDRip 1080p
Видео: MPEG-4 AVC, 1920x804, 11.8 Mbit/s, 24 fps
Звук:
Аудио #01: 48 kHz, AC3, 5.1, 384 Kbps | iTunes | RUS |
Аудио #02: 48 kHz, AC3, 5.1, 640 Kbps | Оригинал | FRE |
Субтитры: Французские-

Скриншоты

--
-

MI

-General
Unique ID : 98737815624624447406343944725343655645 (0x4A483629CF9CC1DC9C759DACAA7256DD)
Complete name : D:Video111Edmond.2018.BDRip.1080p.seleZen.mkv
Format : Matroska
Format version : Version 4
File size : 10.0 GiB
Duration : 1 h 52 min
Overall bit rate : 12.8 Mb/s
Movie name : Edmond 2018 from селезень
Encoded date : UTC 2019-06-07 03:05:37
Writing application : mkvmerge v33.1.0 ('Primrose') 64-bit
Writing library : libebml v1.3.7 + libmatroska v1.5.0
Video
ID : 1
Format : AVC
Format/Info : Advanced Video Codec
Format profile : [email protected]
Format settings : CABAC / 5 Ref Frames
Format settings, CABAC : Yes
Format settings, Reference : 5 frames
Codec ID : V_MPEG4/ISO/AVC
Duration : 1 h 52 min
Bit rate : 11.8 Mb/s
Width : 1 920 pixels
Height : 804 pixels
Display aspect ratio : 2.40:1
Frame rate mode : Constant
Frame rate : 24.000 FPS
Color space : YUV
Chroma subsampling : 4:2:0
Bit depth : 8 bits
Scan type : Progressive
Bits/(Pixel*Frame) : 0.317
Stream size : 9.22 GiB (92%)
Title : seleZen
Writing library : x264 core 148 r2705kMod 3f5ed56
Encoding settings : cabac=1 / ref=5 / deblock=1:-2:-2 / analyse=0x3:0x133 / me=umh / subme=10 / psy=1 / fade_compensate=0.00 / psy_rd=1.20:0.05 / mixed_ref=1 / me_range=32 / chroma_me=1 / trellis=2 / 8x8dct=1 / cqm=0 / deadzone=21,11 / fast_pskip=0 / chroma_qp_offset=-3 / threads=12 / lookahead_threads=2 / sliced_threads=0 / nr=0 / decimate=0 / interlaced=0 / bluray_compat=0 / constrained_intra=0 / fgo=0 / bframes=8 / b_pyramid=2 / b_adapt=2 / b_bias=0 / direct=3 / weightb=1 / open_gop=0 / weightp=2 / keyint=240 / keyint_min=24 / scenecut=40 / intra_refresh=0 / rc_lookahead=50 / rc=2pass / mbtree=0 / bitrate=11756 / ratetol=1.0 / qcomp=0.60 / qpmin=0 / qpmax=51 / qpstep=4 / cplxblur=20.0 / qblur=0.5 / vbv_maxrate=50000 / vbv_bufsize=62500 / nal_hrd=none / filler=0 / ip_ratio=1.40 / pb_ratio=1.30 / aq=3:0.80
Language : French
Default : Yes
Forced : No
Audio #1
ID : 2
Format : AC-3
Format/Info : Audio Coding 3
Commercial name : Dolby Digital
Codec ID : A_AC3
Duration : 1 h 52 min
Bit rate mode : Constant
Bit rate : 384 kb/s
Channel(s) : 6 channels
Channel layout : L R C LFE Ls Rs
Sampling rate : 48.0 kHz
Frame rate : 31.250 FPS (1536 SPF)
Bit depth : 16 bits
Compression mode : Lossy
Stream size : 308 MiB (3%)
Title : iTunes
Language : Russian
Service kind : Complete Main
Default : Yes
Forced : Yes
Audio #2
ID : 3
Format : AC-3
Format/Info : Audio Coding 3
Commercial name : Dolby Digital
Codec ID : A_AC3
Duration : 1 h 52 min
Bit rate mode : Constant
Bit rate : 640 kb/s
Channel(s) : 6 channels
Channel layout : L R C LFE Ls Rs
Sampling rate : 48.0 kHz
Frame rate : 31.250 FPS (1536 SPF)
Bit depth : 16 bits
Compression mode : Lossy
Stream size : 514 MiB (5%)
Title : Original
Language : French
Service kind : Complete Main
Default : No
Forced : No
Text
ID : 4
Format : UTF-8
Codec ID : S_TEXT/UTF8
Codec ID/Info : UTF-8 Plain Text
Duration : 1 h 52 min
Bit rate : 86 b/s
Count of elements : 2532
Stream size : 71.2 KiB (0%)
Title : SDH
Language : French
Default : No
Forced : No
Menu
00:00:00.000 : fr:Глава 01
00:11:06.625 : fr:Глава 02
00:23:08.917 : fr:Глава 03
00:30:05.083 : fr:Глава 04
00:38:32.333 : fr:Глава 05
00:45:25.250 : fr:Глава 06
00:55:55.750 : fr:Глава 07
01:03:44.042 : fr:Глава 08
01:11:27.583 : fr:Глава 09
01:21:28.375 : fr:Глава 10
01:33:40.625 : fr:Глава 11
01:39:15.792 : fr:Глава 12-
-Релиз: -
[Профиль] [ЛС]
Показать сообщения:    
Ответить на тему

Текущее время: 22-Окт 00:06

Часовой пояс: UTC + 4



Вы не можете начинать темы
Вы не можете отвечать на сообщения
Вы не можете редактировать свои сообщения
Вы не можете удалять свои сообщения
Вы не можете голосовать в опросах
Вы не можете прикреплять файлы к сообщениям
Вы можете скачивать файлы
Анализ сайта korsars.info Яндекс.Метрика