Правила бойни / Slaughterhouse Rulez (Криспиан Миллс) [2018, ужасы, комедия, BDRip 1080p | iTunes]

Ответить на тему
 
Автор Сообщение

Skorp10n ®

Оффлайн

Активный раздающий 1Активный раздающий 2Активный релизер 1000Активный релизер 1500
Активный релизер 2000Активный релизер 250Активный релизер 3000Активный релизер 500Активный релизер 5000Активный релизер Фильмов (1000)Активный релизер Фильмов (300)Активный релизер Фильмов (600)Активный Форумчанин 1Активный Форумчанин 2Активный Форумчанин 3Активный Форумчанин 4Друг трекераКарма 1000Карма 1500Карма 3000Карма 500МеценатНи дня без новостейОрденосец 1 степениОрденосец 2 степениОрденосец 3 степениПочетный орденосецПочетный репортерС Новым 2016 Годом!С Новым 2017 Годом!С Новым 2018 Годом!С Новым 2019 Годом!Супер Мега Контер КвейкТОП-10

Пол: Мужской

Стаж: 4 года 1 месяц

Наличие запрета:

Сообщений: 11658

Откуда: Free-Tor.com

Отдача: не определено

Загрузка: не определено

Нажми

Создавать темы 15-Июн-2019 13:03

[Цитировать]

Информация о фильме- Название: Правила бойни
Оригинальное название: Slaughterhouse Rulez
Год выхода: 2018
Жанр: ужасы, комедия
Режиссер: Криспиан Миллс
В ролях: Марго Робби, Саймон Пегг, Майкл Шин, Эйса Баттерфилд, Ник Фрост, Гермиона Корфилд, Финн Коул, Джо Хартли, Алекс МакКуин, Изабелла Лафлэнд-О фильме:-В элитной британской школе-интернате с интересным названием Бойня, как и положено, царят снобизм, высокомерие и жестокий закон джунглей. Новеньким и слабым приходится терпеть унижения и даже побои. Некоторое разнообразие в заведенный десятилетиями порядок вносит внезапно образовавшийся в соседнем лесу невероятно глубокий провал в земле. А вылезшие из дыры плотоядные чудовища и вовсе разрушают учебный план, напоминая ученикам и преподавателям, что такое настоящий естественный отбор.- -Страна: Великобритания
Студия: Catalyst Global Media, Sony Pictures International, Stolen Picture
Продолжительность: 01:43:41
Перевод: Профессиональный многоголосый, закадровый [iTunes]-Файл-Кодек: H.264
Качество: BDRip 1080p
Видео: AVC, 1920x808 (2.40:1), 23.976 fps ~ 9000 Kbps
Звук:
AC3, 48 KHz, 6 ch ~ 384 Kb/s (русский)
DTS, 48 KHz, 6 ch ~ 1510 Kb/s (английский)
Субтитры: Русские, английские-

MI:

-Общее
Уникальный идентификатор : 235281978616367725752271664014003442878 (0xB101A92A22CF6A0794902BE0FCCE94BE)
Полное имя : Q:TorFSlaughterhouse.Rulez.2018.BDRip.1080p.ELEKTRI4KA.UNIONGANG.mkv
Формат : Matroska
Версия формата : Version 2
Размер файла : 7,93 Гбайт
Продолжительность : 1 ч. 43 м.
Общий поток : 10,9 Мбит/сек
Название фильма : Slaughterhouse.Rulez.2018.ELEKTRI4KA.UNIONGANG
Дата кодирования : UTC 2019-05-18 23:04:03
Программа кодирования : mkvmerge v7.8.0 ('River Man') 32bit built on Apr 3 2015 12:11:22
Библиотека кодирования : libebml v1.3.1 + libmatroska v1.4.2
Видео
Идентификатор : 1
Формат : AVC
Формат/Информация : Advanced Video Codec
Профиль формата : [email protected]
Параметр CABAC формата : Да
Параметр ReFrames формата : 5 кадров
Идентификатор кодека : V_MPEG4/ISO/AVC
Продолжительность : 1 ч. 43 м.
Битрейт : 9054 Кбит/сек
Ширина : 1920 пикселей
Высота : 808 пикселей
Соотношение сторон : 2,40:1
Частота кадров : 23,976 кадра/сек
Цветовое пространство : YUV
Субдискретизация насыщенности : 4:2:0
Битовая глубина : 8 бит
Тип развёртки : Прогрессивная
Бит/(Пиксели*Кадры) : 0.243
Размер потока : 6,40 Гбайт (81%)
Библиотека кодирования : x264 core 157 r2935 545de2f
Настройки программы : cabac=1 / ref=5 / deblock=1:-3:-3 / analyse=0x3:0x113 / me=umh / subme=8 / psy=1 / psy_rd=1.00:0.00 / mixed_ref=1 / me_range=32 / chroma_me=1 / trellis=2 / 8x8dct=1 / cqm=0 / deadzone=21,11 / fast_pskip=1 / chroma_qp_offset=-2 / threads=24 / lookahead_threads=4 / sliced_threads=0 / nr=0 / decimate=1 / interlaced=0 / bluray_compat=0 / constrained_intra=0 / bframes=3 / b_pyramid=2 / b_adapt=2 / b_bias=0 / direct=3 / weightb=1 / open_gop=0 / weightp=2 / keyint=240 / keyint_min=24 / scenecut=40 / intra_refresh=0 / rc_lookahead=50 / rc=2pass / mbtree=1 / bitrate=9054 / ratetol=1.0 / qcomp=0.60 / qpmin=0 / qpmax=69 / qpstep=4 / cplxblur=20.0 / qblur=0.5 / ip_ratio=1.40 / aq=3:0.80
Default : Да
Forced : Нет
DURATION : 01:43:41.632000000
NUMBER_OF_FRAMES : 149170
NUMBER_OF_BYTES : 7038458395
_STATISTICS_WRITING_APP : no_variable_data
_STATISTICS_WRITING_DATE_UTC : 1970-01-01 00:00:00
_STATISTICS_TAGS : BPS DURATION NUMBER_OF_FRAMES NUMBER_OF_BYTES
Аудио #1
Идентификатор : 2
Формат : AC-3
Формат/Информация : Audio Coding 3
Расширение режима : CM (complete main)
Идентификатор кодека : A_AC3
Продолжительность : 1 ч. 43 м.
Вид битрейта : Постоянный
Битрейт : 384 Кбит/сек
Каналы : 6 каналов
Расположение каналов : Front: L C R, Side: L R, LFE
Частота : 48,0 КГц
Битовая глубина : 16 бит
Метод сжатия : С потерями
Размер потока : 285 Мбайт (4%)
Заголовок : rus.ELEKTRI4KA.UNIONGANG
Язык : Russian
Default : Да
Forced : Нет
DURATION : 01:43:41.643000000
NUMBER_OF_FRAMES : 583279
NUMBER_OF_BYTES : 1173557348
_STATISTICS_WRITING_APP : no_variable_data
_STATISTICS_WRITING_DATE_UTC : 1970-01-01 00:00:00
_STATISTICS_TAGS : BPS DURATION NUMBER_OF_FRAMES NUMBER_OF_BYTES
Аудио #2
Идентификатор : 5
Формат : DTS
Формат/Информация : Digital Theater Systems
Идентификатор кодека : A_DTS
Продолжительность : 1 ч. 43 м.
Вид битрейта : Постоянный
Битрейт : 1510 Кбит/сек
Каналы : 6 каналов
Расположение каналов : Front: L C R, Side: L R, LFE
Частота : 48,0 КГц
Битовая глубина : 24 бит
Метод сжатия : С потерями
Размер потока : 1,09 Гбайт (14%)
Язык : English
Default : Нет
Forced : Нет
DURATION : 01:41:00.888000000
NUMBER_OF_FRAMES : 1734
NUMBER_OF_BYTES : 59092
_STATISTICS_WRITING_APP : no_variable_data
_STATISTICS_WRITING_DATE_UTC : 1970-01-01 00:00:00
_STATISTICS_TAGS : BPS DURATION NUMBER_OF_FRAMES NUMBER_OF_BYTES
Текст #1
Идентификатор : 3
Формат : UTF-8
Идентификатор кодека : S_TEXT/UTF8
Идентификатор кодека/Информация : UTF-8 Plain Text
Язык : Russian
Default : Нет
Forced : Нет
DURATION : 00:02:45.874000000
NUMBER_OF_FRAMES : 6
NUMBER_OF_BYTES : 127
_STATISTICS_WRITING_APP : no_variable_data
_STATISTICS_WRITING_DATE_UTC : 1970-01-01 00:00:00
_STATISTICS_TAGS : BPS DURATION NUMBER_OF_FRAMES NUMBER_OF_BYTES
Текст #2
Идентификатор : 4
Формат : UTF-8
Идентификатор кодека : S_TEXT/UTF8
Идентификатор кодека/Информация : UTF-8 Plain Text
Заголовок : Forced
Язык : Russian
Default : Нет
Forced : Нет
DURATION : 01:40:18.262000000
NUMBER_OF_FRAMES : 1548
NUMBER_OF_BYTES : 54648
_STATISTICS_WRITING_APP : no_variable_data
_STATISTICS_WRITING_DATE_UTC : 1970-01-01 00:00:00
_STATISTICS_TAGS : BPS DURATION NUMBER_OF_FRAMES NUMBER_OF_BYTES
Текст #3
Идентификатор : 6
Формат : UTF-8
Идентификатор кодека : S_TEXT/UTF8
Идентификатор кодека/Информация : UTF-8 Plain Text
Заголовок : Forced
Язык : English
Default : Да
Forced : Да
Текст #4
Идентификатор : 7
Формат : UTF-8
Идентификатор кодека : S_TEXT/UTF8
Идентификатор кодека/Информация : UTF-8 Plain Text
Язык : English
Default : Нет
Forced : Нет
Текст #5
Идентификатор : 8
Формат : UTF-8
Идентификатор кодека : S_TEXT/UTF8
Идентификатор кодека/Информация : UTF-8 Plain Text
Заголовок : SDH
Язык : English
Default : Нет
Forced : Нет
Меню
00:00:00.000 : en:Chapter 01
00:07:13.600 : en:Chapter 02
00:13:35.898 : en:Chapter 03
00:19:19.950 : en:Chapter 04
00:25:51.550 : en:Chapter 05
00:32:12.848 : en:Chapter 06
00:38:57.877 : en:Chapter 07
00:45:25.056 : en:Chapter 08
00:51:12.695 : en:Chapter 09
00:56:48.071 : en:Chapter 10
01:01:45.285 : en:Chapter 11
01:10:52.874 : en:Chapter 12
01:17:56.547 : en:Chapter 13
01:25:59.029 : en:Chapter 14
01:33:08.666 : en:Chapter 15
01:37:12.535 : en:Chapter 16-
-

Скриншоты

--
-Релиз от: -
[Профиль] [ЛС]
Показать сообщения:    
Ответить на тему

Текущее время: 17-Сен 02:45

Часовой пояс: UTC + 4



Вы не можете начинать темы
Вы не можете отвечать на сообщения
Вы не можете редактировать свои сообщения
Вы не можете удалять свои сообщения
Вы не можете голосовать в опросах
Вы не можете прикреплять файлы к сообщениям
Вы можете скачивать файлы
Анализ сайта korsars.info Яндекс.Метрика