Звонок мертвецу / Abgeschnitten (Кристиан Альварт) [2018, ужасы, боевик, триллер, криминал, детектив, BDRip 1080p от селезень | iTunes]

Ответить на тему
 
Автор Сообщение

Skorp10n ®

Оффлайн

Активный раздающий 1Активный раздающий 2Активный релизер 1000Активный релизер 1500
Активный релизер 2000Активный релизер 250Активный релизер 3000Активный релизер 500Активный релизер 5000Активный релизер Фильмов (1000)Активный релизер Фильмов (300)Активный релизер Фильмов (600)Активный Форумчанин 1Активный Форумчанин 2Активный Форумчанин 3Активный Форумчанин 4Друг трекераКарма 1000Карма 1500Карма 3000Карма 500МеценатНи дня без новостейОрденосец 1 степениОрденосец 2 степениОрденосец 3 степениПочетный орденосецПочетный репортерС Новым 2016 Годом!С Новым 2017 Годом!С Новым 2018 Годом!С Новым 2019 Годом!Супер Мега Контер КвейкТОП-10

Пол: Мужской

Стаж: 4 года 1 месяц

Наличие запрета:

Сообщений: 11658

Откуда: Free-Tor.com

Отдача: не определено

Загрузка: не определено

Нажми

Создавать темы 15-Июн-2019 13:50

[Цитировать]

Информация о фильме- Название: Звонок мертвецу
Оригинальное название: Abgeschnitten
Год выхода: 2018
Жанр: Ужасы, боевик, триллер, криминал, детектив
Режиссер: Кристиан Альварт
В ролях: Мориц Бляйбтрой, Ясна Фритци Бауэр, Ларс Айдингер, Фахри Огюн Ярдим, Энно Хессе, Кристиан Кухенбух, Урс Юккер, Барбара Пракопенка, Джой Мария Бэй, Ян Бюлов- -О фильме: Судмедэксперт Пауль Херцфельд обнаруживает в голове чудовищно изуродованного трупа записку, на которой — телефонный номер с указанием: позвони и узнаешь судьбу своей похищенной дочери. На острове Хельголанд, отрезанном от суши страшным ураганом, Пауля поджидает еще один мертвец, а внутри — дальнейшие указания. И это только начало цепочки смертей… Психопат-похититель не прочь поиграть с жертвами в кошки-мышки. Тот, кто разгадает головоломку из тел, имеет шансы остаться в живых.-Страна: Германия
Студия: Regina Ziegler Filmproduktion, Syrreal Entertainment, Warner Bros.
Продолжительность: 02:11:43
Перевод: Дублированный | iTunes-Качество: BDRip 1080p
Видео: MPEG-4 AVC, 1920x800, 12.5 Mbit/s, 23.976 fps
Звук:
Аудио #01:48 kHz, AC3, 5.1, 384 Kbps | iTunes | RUS |
Аудио #02:48 kHz, AC3, 5.1, 640 Kbps | Оригинал | GER | -

Скриншоты

--
-

MI

-General
Unique ID : 70645917528414233017082901613330011349 (0x3525E8A739E45C33DEC9CE2BD91B94D5)
Complete name : D:Video111Abgeschnitten.2018.BDRip.1080p.seleZen.mkv
Format : Matroska
Format version : Version 4
File size : 12.4 GiB
Duration : 2 h 11 min
Overall bit rate : 13.5 Mb/s
Movie name : Abgeschnitten 2018 from селезень
Encoded date : UTC 2019-05-31 02:38:54
Writing application : mkvmerge v33.1.0 ('Primrose') 64-bit
Writing library : libebml v1.3.7 + libmatroska v1.5.0
Video
ID : 1
Format : AVC
Format/Info : Advanced Video Codec
Format profile : [email protected]
Format settings : CABAC / 5 Ref Frames
Format settings, CABAC : Yes
Format settings, Reference : 5 frames
Codec ID : V_MPEG4/ISO/AVC
Duration : 2 h 11 min
Bit rate : 12.5 Mb/s
Width : 1 920 pixels
Height : 800 pixels
Display aspect ratio : 2.40:1
Frame rate mode : Constant
Frame rate : 23.976 (24000/1001) FPS
Color space : YUV
Chroma subsampling : 4:2:0
Bit depth : 8 bits
Scan type : Progressive
Bits/(Pixel*Frame) : 0.338
Stream size : 11.5 GiB (92%)
Title : seleZen
Writing library : x264 core 148 r2705kMod 3f5ed56
Encoding settings : cabac=1 / ref=5 / deblock=1:-2:-2 / analyse=0x3:0x133 / me=umh / subme=10 / psy=1 / fade_compensate=0.00 / psy_rd=1.20:0.05 / mixed_ref=1 / me_range=24 / chroma_me=1 / trellis=2 / 8x8dct=1 / cqm=0 / deadzone=21,11 / fast_pskip=0 / chroma_qp_offset=-3 / threads=12 / lookahead_threads=2 / sliced_threads=0 / nr=0 / decimate=0 / interlaced=0 / bluray_compat=0 / constrained_intra=0 / fgo=0 / bframes=8 / b_pyramid=2 / b_adapt=2 / b_bias=0 / direct=3 / weightb=1 / open_gop=0 / weightp=2 / keyint=240 / keyint_min=23 / scenecut=40 / intra_refresh=0 / rc_lookahead=50 / rc=2pass / mbtree=0 / bitrate=12457 / ratetol=1.0 / qcomp=0.60 / qpmin=0 / qpmax=51 / qpstep=4 / cplxblur=20.0 / qblur=0.5 / vbv_maxrate=50000 / vbv_bufsize=62500 / nal_hrd=none / filler=0 / ip_ratio=1.40 / pb_ratio=1.30 / aq=3:0.80
Language : English
Default : Yes
Forced : No
Audio #1
ID : 2
Format : AC-3
Format/Info : Audio Coding 3
Commercial name : Dolby Digital
Codec ID : A_AC3
Duration : 2 h 11 min
Bit rate mode : Constant
Bit rate : 384 kb/s
Channel(s) : 6 channels
Channel layout : L R C LFE Ls Rs
Sampling rate : 48.0 kHz
Frame rate : 31.250 FPS (1536 SPF)
Bit depth : 16 bits
Compression mode : Lossy
Stream size : 362 MiB (3%)
Title : iTunes
Language : Russian
Service kind : Complete Main
Default : Yes
Forced : Yes
Audio #2
ID : 3
Format : AC-3
Format/Info : Audio Coding 3
Commercial name : Dolby Digital
Codec ID : A_AC3
Duration : 2 h 11 min
Bit rate mode : Constant
Bit rate : 640 kb/s
Channel(s) : 6 channels
Channel layout : L R C LFE Ls Rs
Sampling rate : 48.0 kHz
Frame rate : 31.250 FPS (1536 SPF)
Bit depth : 16 bits
Compression mode : Lossy
Stream size : 603 MiB (5%)
Title : Original
Language : German
Service kind : Complete Main
Default : No
Forced : No
Menu
00:00:00.000 : de:Глава 01
00:10:48.857 : de:Глава 02
00:23:43.922 : de:Глава 03
00:30:49.306 : de:Глава 04
00:42:14.282 : de:Глава 05
00:56:23.505 : de:Глава 06
01:06:20.560 : de:Глава 07
01:14:25.836 : de:Глава 08
01:27:30.370 : de:Глава 09
01:39:20.997 : de:Глава 10
01:49:11.044 : de:Глава 11
02:02:21.918 : de:Глава 12-
-Релиз от: -
[Профиль] [ЛС]
Показать сообщения:    
Ответить на тему

Текущее время: 17-Сен 02:29

Часовой пояс: UTC + 4



Вы не можете начинать темы
Вы не можете отвечать на сообщения
Вы не можете редактировать свои сообщения
Вы не можете удалять свои сообщения
Вы не можете голосовать в опросах
Вы не можете прикреплять файлы к сообщениям
Вы можете скачивать файлы
Анализ сайта korsars.info Яндекс.Метрика