Ну разве не романтично? / Isn't It Romantic (Тодд Штраус-Шульсон) [2019, фэнтези, мелодрама, комедия, BDRip 1080p от OlLanDGroup | D, P | Пифагор]

Ответить на тему
 
Автор Сообщение

Skorp10n ®

Оффлайн

Активный раздающий 1Активный раздающий 2Активный релизер 1000Активный релизер 1500
Активный релизер 2000Активный релизер 250Активный релизер 3000Активный релизер 500Активный релизер 5000Активный релизер Фильмов (1000)Активный релизер Фильмов (300)Активный релизер Фильмов (600)Активный Форумчанин 1Активный Форумчанин 2Активный Форумчанин 3Активный Форумчанин 4Друг трекераКарма 1000Карма 1500Карма 3000Карма 500МеценатНи дня без новостейОрденосец 1 степениОрденосец 2 степениОрденосец 3 степениПочетный орденосецПочетный репортерС Новым 2016 Годом!С Новым 2017 Годом!С Новым 2018 Годом!С Новым 2019 Годом!Супер Мега Контер КвейкТОП-10

Пол: Мужской

Стаж: 4 года 1 месяц

Наличие запрета:

Сообщений: 11658

Откуда: Free-Tor.com

Отдача: не определено

Загрузка: не определено

Нажми

Создавать темы 15-Июн-2019 13:59

[Цитировать]

Информация о фильме- Название: Ну разве не романтично?
Оригинальное название: Isn't It Romantic
Год выпуска: 2019
Жанр: Фэнтези, мелодрама, комедия
Выпущено: США, BRON Studios, Camp Sugar, Creative Wealth Media Finance
Режиссер: Тодд Штраус-Шульсон
В ролях: Ребел Уилсон, Лиам Хемсворт, Том Эллис, Приянка Чопра, Адам Дивайн, Бетти Гилпин, Дженнифер Сондерс, Фэйт Логан, Брэндон Скотт Джонс, Евгения Кузьмина-О фильме: Натали — талантливый архитектор, интенсивно работающий ради того, чтобы заслужить уважение коллег, и убежденный циник, когда дело доходит до романтических отношений. Однажды молодая женщина получает травму головы после встречи с уличным грабителем. Спустя некоторое время Натали приходит в себя и обнаруживает, что оказалась в альтернативной вселенной, события которой напоминают типичный романтический фильм. Новая жизнь, которая изобилует клише и стереотипами, не устраивает героиню, поэтому она решается на кардинальные перемены...- -Качество: BDRip (1080p)
Видео: MPEG-4 AVC, 7148 Кбит/с, 1920x806, 23.976 Кадр/c
Аудио: Русский (AC3, 6 ch, 640 Кбит/с), (AC3, 2 ch, 192 Кбит/с), английский (DTS, 6 ch, 1509 Кбит/с)
Размер: 5.85 ГБ
Продолжительность: 01:28:19
Перевод: Дублированный, профессиональный многоголосый
Субтитры: Русские, английские-Озвучивание - Дублированное (Пифагор), профессиональное многоголосое (HDRezka Studio)
Сохранены оригинальные чаптеры как на Blu-Ray.
За звук и субтитры, большое спасибо EniaHD-

x264

-x264 [info]: frame I:1090 Avg QP:14.97 size:228209
x264 [info]: frame P:28966 Avg QP:17.98 size: 74350
x264 [info]: frame B:96987 Avg QP:19.47 size: 24027
x264 [info]: consecutive B-frames: 2.5% 3.4% 11.9% 16.7% 17.0% 43.5% 3.2% 0.4% 0.5% 0.3% 0.5%
x264 [info]: mb I I16..4: 6.9% 84.6% 8.5%
x264 [info]: mb P I16..4: 1.6% 15.6% 1.0% P16..4: 30.1% 34.6% 10.8% 1.2% 0.1% skip: 5.1%
x264 [info]: mb B I16..4: 0.3% 1.3% 0.1% B16..8: 35.3% 21.0% 3.2% direct: 5.4% skip:33.4% L0:43.1% L1:44.3% BI:12.6%
x264 [info]: 8x8 transform intra:84.2% inter:63.5%
x264 [info]: direct mvs spatial:98.5% temporal:1.5%
x264 [info]: coded y,uvDC,uvAC intra: 84.1% 89.7% 75.4% inter: 24.8% 27.7% 13.6%
x264 [info]: i16 v,h,dc,p: 35% 11% 6% 48%
x264 [info]: i8 v,h,dc,ddl,ddr,vr,hd,vl,hu: 11% 8% 10% 9% 12% 13% 12% 12% 13%
x264 [info]: i4 v,h,dc,ddl,ddr,vr,hd,vl,hu: 19% 8% 10% 8% 13% 12% 12% 9% 10%
x264 [info]: i8c dc,h,v,p: 44% 24% 16% 16%
x264 [info]: Weighted P-Frames: Y:1.6% UV:0.9%
x264 [info]: ref P L0: 50.3% 10.5% 23.3% 7.4% 7.6% 0.9% 0.0%
x264 [info]: ref B L0: 76.0% 17.2% 5.2% 1.6%
x264 [info]: ref B L1: 93.1% 6.9%
x264 [info]: kb/s:7145.29-
-

Инфо-файл

-Общее
Уникальный идентификатор : 211309462215032024082432264704260707449 (0x9EF8B8DA50C10BBCA494316A476E1479)
Полное имя : D:ЗагрузкиIsnt.It.Romantic.2019.x264.BDRip.(1080p).OlLanDGroup.mkv
Формат : Matroska
Версия формата : Version 4 / Version 2
Размер файла : 5,85 Гбайт
Продолжительность : 1 ч. 28 м.
Общий поток : 9491 Кбит/сек
Название фильма : Ну разве не романтично?.2019.Rip by: ollan
Дата кодирования : UTC 2019-05-18 17:02:36
Программа кодирования : mkvmerge v6.5.0 ('Isn't she lovely') built on Oct 20 2013 12:50:05
Библиотека кодирования : libebml v1.3.0 + libmatroska v1.4.1
Обложка : Yes
Attachments : Cover - Isn't.It.Romantic.png / Cover - Isn't.It.Romantic.png
Видео
Идентификатор : 1
Формат : AVC
Формат/Информация : Advanced Video Codec
Профиль формата : [email protected]
Настройки формата : CABAC / 5 Ref Frames
Параметр CABAC формата : Да
Параметр ReFrames формата : 5 кадров
Идентификатор кодека : V_MPEG4/ISO/AVC
Продолжительность : 1 ч. 28 м.
Битрейт : 7148 Кбит/сек
Ширина : 1920 пикселей
Высота : 806 пикселей
Соотношение сторон : 2,40:1
Режим частоты кадров : Постоянный
Частота кадров : 23,976 (24000/1001) кадра/сек
Цветовое пространство : YUV
Субдискретизация насыщенности : 4:2:0
Битовая глубина : 8 бит
Тип развёртки : Прогрессивная
Бит/(Пиксели*Кадры) : 0.193
Размер потока : 4,29 Гбайт (73%)
Библиотека кодирования : x264 core 146 r2538 121396c
Настройки программы : cabac=1 / ref=5 / deblock=1:-3:-3 / analyse=0x3:0x133 / me=umh / subme=11 / psy=1 / psy_rd=0.95:0.05 / mixed_ref=1 / me_range=64 / chroma_me=1 / trellis=2 / 8x8dct=1 / cqm=0 / deadzone=21,11 / fast_pskip=0 / chroma_qp_offset=-3 / threads=12 / lookahead_threads=3 / sliced_threads=0 / nr=0 / decimate=0 / interlaced=0 / bluray_compat=0 / constrained_intra=0 / bframes=10 / b_pyramid=2 / b_adapt=2 / b_bias=0 / direct=3 / weightb=1 / open_gop=0 / weightp=2 / keyint=240 / keyint_min=23 / scenecut=40 / intra_refresh=0 / rc_lookahead=40 / rc=2pass / mbtree=0 / bitrate=7148 / ratetol=1.0 / qcomp=0.60 / qpmin=0 / qpmax=69 / qpstep=4 / cplxblur=20.0 / qblur=0.5 / vbv_maxrate=50000 / vbv_bufsize=62500 / nal_hrd=none / filler=0 / ip_ratio=1.40 / pb_ratio=1.30 / aq=1:1.00
Язык : English
Default : Да
Forced : Нет
Аудио #1
Идентификатор : 2
Формат : AC-3
Формат/Информация : Audio Coding 3
Идентификатор кодека : A_AC3
Продолжительность : 1 ч. 28 м.
Вид битрейта : Постоянный
Битрейт : 640 Кбит/сек
Каналы : 6 каналов
Расположение каналов : Front: L C R, Side: L R, LFE
Частота : 48,0 КГц
Частота кадров : 31,250 кадров/сек (1536 SPF)
Битовая глубина : 16 бит
Метод сжатия : С потерями
Размер потока : 404 Мбайт (7%)
Заголовок : Дублированный (Пифагор)
Язык : Russian
Service kind : Complete Main
Default : Да
Forced : Нет
Аудио #2
Идентификатор : 3
Формат : AC-3
Формат/Информация : Audio Coding 3
Идентификатор кодека : A_AC3
Продолжительность : 1 ч. 28 м.
Вид битрейта : Постоянный
Битрейт : 192 Кбит/сек
Каналы : 2 канала
Расположение каналов : Front: L R
Частота : 48,0 КГц
Частота кадров : 31,250 кадров/сек (1536 SPF)
Битовая глубина : 16 бит
Метод сжатия : С потерями
Размер потока : 121 Мбайт (2%)
Заголовок : MVO [HDRezka Studio]
Язык : Russian
Service kind : Complete Main
Default : Нет
Forced : Нет
Аудио #3
Идентификатор : 4
Формат : DTS
Формат/Информация : Digital Theater Systems
Идентификатор кодека : A_DTS
Продолжительность : 1 ч. 28 м.
Вид битрейта : Постоянный
Битрейт : 1509 Кбит/сек
Каналы : 6 каналов
Расположение каналов : Front: L C R, Side: L R, LFE
Частота : 48,0 КГц
Частота кадров : 93,750 кадра/сек (512 SPF)
Битовая глубина : 24 бит
Метод сжатия : С потерями
Размер потока : 953 Мбайт (16%)
Язык : English
Default : Нет
Forced : Нет
Текст #1
Идентификатор : 5
Формат : UTF-8
Идентификатор кодека : S_TEXT/UTF8
Идентификатор кодека/Информация : UTF-8 Plain Text
Заголовок : Forced
Язык : Russian
Default : Да
Forced : Нет
Текст #2
Идентификатор : 6
Формат : UTF-8
Идентификатор кодека : S_TEXT/UTF8
Идентификатор кодека/Информация : UTF-8 Plain Text
Заголовок : Full
Язык : Russian
Default : Нет
Forced : Нет
Текст #3
Идентификатор : 7
Формат : UTF-8
Идентификатор кодека : S_TEXT/UTF8
Идентификатор кодека/Информация : UTF-8 Plain Text
Заголовок : Full
Язык : English
Default : Нет
Forced : Нет
Меню
00:00:00.000 : en:Chapter 01
00:07:52.889 : en:Chapter 02
00:14:06.804 : en:Chapter 03
00:22:53.663 : en:Chapter 04
00:29:43.198 : en:Chapter 05
00:35:49.856 : en:Chapter 06
00:44:08.103 : en:Chapter 07
00:49:59.496 : en:Chapter 08
00:56:01.524 : en:Chapter 09
01:02:22.572 : en:Chapter 10
01:10:16.962 : en:Chapter 11
01:14:35.679 : en:Chapter 12
01:24:08.918 : en:Chapter 13-
-

Скриншоты

--
-Релиз от: Rip by: -
[Профиль] [ЛС]
Показать сообщения:    
Ответить на тему

Текущее время: 17-Сен 02:26

Часовой пояс: UTC + 4



Вы не можете начинать темы
Вы не можете отвечать на сообщения
Вы не можете редактировать свои сообщения
Вы не можете удалять свои сообщения
Вы не можете голосовать в опросах
Вы не можете прикреплять файлы к сообщениям
Вы можете скачивать файлы
Анализ сайта korsars.info Яндекс.Метрика