Амундсен / Amundsen (Эспен Сандберг) [2019, приключения, биография, драма, история, WEB-DL 1080p от селезень | iTunes]

Ответить на тему
 
Автор Сообщение

Skorp10n ®

Оффлайн

Активный раздающий 1Активный раздающий 2Активный релизер 1000Активный релизер 1500
Активный релизер 2000Активный релизер 250Активный релизер 3000Активный релизер 500Активный релизер 5000Активный релизер Фильмов (1000)Активный релизер Фильмов (300)Активный релизер Фильмов (600)Активный Форумчанин 1Активный Форумчанин 2Активный Форумчанин 3Активный Форумчанин 4Друг трекераКарма 1000Карма 1500Карма 3000Карма 500МеценатНи дня без новостейОрденосец 1 степениОрденосец 2 степениОрденосец 3 степениПочетный орденосецПочетный репортерС Новым 2016 Годом!С Новым 2017 Годом!С Новым 2018 Годом!С Новым 2019 Годом!Супер Мега Контер КвейкТОП-10

Пол: Мужской

Стаж: 4 года 1 месяц

Наличие запрета:

Сообщений: 11658

Откуда: Free-Tor.com

Отдача: не определено

Загрузка: не определено

Нажми

Создавать темы 15-Июн-2019 14:03

[Цитировать]

Информация о фильме- Название: Амундсен
Оригинальное название: Amundsen
Год выхода: 2019
Жанр: Приключения, биография, драма, история
Режиссер: Эспен Сандберг
В ролях: Кэтрин Уотерстон, Пол Сверре Валхейм, Хаген, Йонас Страндт Гравли, Кристиан Рубек, Фритьоф Сохэйм, Мадс Сьёгард Петтерсен, Оле Кристоффер Эртвог, Тронд Эспен Сейм, Ида Урсин-Хольм, Тед Отис- -О фильме: Молодой норвежский путешественник грезит об открытии неизведанных полярных земель. В погоне за мечтой и грандиозными свершениями герой жертвует всем: семейными узами, дружбой, любовью всей жизни. Получая взамен ледяные пустыни, бездонные трещины, нечеловеческий холод, метели и вечную мерзлоту.-Страна: Норвегия
Студия: Espen Horn, Film i Väst, Film Kolektiv, Filminvest, Motion Blur Films, SF Film Production
Продолжительность: 02:05:07
Перевод: Дублированный | iTunes-Качество: WEB-DL 1080p
Видео: MPEG-4 AVC, 1908x792, 4609 Kbit/s, 23.976 fps
Звук:
Аудио: 48 kHz, AC3, 5.1, 384 Kbps | iTunes | RUS | -

Скриншоты

--
-

MI

-General
Unique ID : 212699898352784639645059723613264423806 (0xA00482A5AE0F1ECFBB2B0A9951A82B7E)
Complete name : D:Video111Amundsen.2019.WEB-DL.1080p.seleZen.mkv
Format : Matroska
Format version : Version 4
File size : 4.36 GiB
Duration : 2 h 5 min
Overall bit rate : 4 994 kb/s
Movie name : Amundsen 2019 from селезень
Encoded date : UTC 2019-05-15 22:20:39
Writing application : mkvmerge v33.1.0 ('Primrose') 64-bit
Writing library : libebml v1.3.7 + libmatroska v1.5.0
Video
ID : 1
Format : AVC
Format/Info : Advanced Video Codec
Format profile : [email protected]
Format settings : CABAC / 5 Ref Frames
Format settings, CABAC : Yes
Format settings, Reference : 5 frames
Codec ID : V_MPEG4/ISO/AVC
Duration : 2 h 5 min
Bit rate : 4 609 kb/s
Width : 1 908 pixels
Height : 792 pixels
Display aspect ratio : 2.40:1
Frame rate mode : Constant
Frame rate : 23.976 (24000/1001) FPS
Color space : YUV
Chroma subsampling : 4:2:0
Bit depth : 8 bits
Scan type : Progressive
Bits/(Pixel*Frame) : 0.127
Stream size : 4.03 GiB (92%)
Language : English
Default : Yes
Forced : No
Color range : Limited
Color primaries : BT.709
Transfer characteristics : BT.709
Matrix coefficients : BT.709
Audio
ID : 2
Format : AC-3
Format/Info : Audio Coding 3
Commercial name : Dolby Digital
Codec ID : A_AC3
Duration : 2 h 5 min
Bit rate mode : Constant
Bit rate : 384 kb/s
Channel(s) : 6 channels
Channel layout : L R C LFE Ls Rs
Sampling rate : 48.0 kHz
Frame rate : 31.250 FPS (1536 SPF)
Bit depth : 16 bits
Compression mode : Lossy
Stream size : 344 MiB (8%)
Title : iTunes
Language : Russian
Service kind : Complete Main
Default : Yes
Forced : Yes
Menu
00:00:00.000 : en:00:00:00.000
00:13:04.867 : en:00:13:04.867
00:26:44.812 : en:00:26:44.812
00:38:05.283 : en:00:38:05.283-
-Релиз: -
[Профиль] [ЛС]
Показать сообщения:    
Ответить на тему

Текущее время: 17-Сен 02:27

Часовой пояс: UTC + 4



Вы не можете начинать темы
Вы не можете отвечать на сообщения
Вы не можете редактировать свои сообщения
Вы не можете удалять свои сообщения
Вы не можете голосовать в опросах
Вы не можете прикреплять файлы к сообщениям
Вы можете скачивать файлы
Анализ сайта korsars.info Яндекс.Метрика