1+1: Голливудская история / The Upside (Нил Бёргер) [2017, драма, комедия, BDRip 1080p | Лицензия]

Ответить на тему
 
Автор Сообщение

Skorp10n ®

Оффлайн

Активный раздающий 1Активный раздающий 2Активный релизер 1000Активный релизер 1500
Активный релизер 2000Активный релизер 250Активный релизер 3000Активный релизер 500Активный релизер 5000Активный релизер Фильмов (1000)Активный релизер Фильмов (300)Активный релизер Фильмов (600)Активный Форумчанин 1Активный Форумчанин 2Активный Форумчанин 3Активный Форумчанин 4Друг трекераКарма 1000Карма 1500Карма 3000Карма 500МеценатНи дня без новостейОрденосец 1 степениОрденосец 2 степениОрденосец 3 степениПочетный орденосецПочетный репортерС Новым 2016 Годом!С Новым 2017 Годом!С Новым 2018 Годом!С Новым 2019 Годом!Супер Мега Контер КвейкТОП-10

Пол: Мужской

Стаж: 4 года 1 месяц

Наличие запрета:

Сообщений: 11658

Откуда: Free-Tor.com

Отдача: не определено

Загрузка: не определено

Нажми

Создавать темы 15-Июн-2019 14:53

[Цитировать]

«Одинокий миллиардер в поисках острых ощущений»-Информация о фильме- Название: 1+1: Голливудская история
Оригинальное название: The Upside
Год выхода: 2017
Жанр: Драма, комедия
Режиссер: Нил Бёргер
В ролях: Брайан Крэнстон, Кевин Харт, Николь Кидман, Эйджа Наоми Кинг, Джахи Диалло Уинстон, Женевьева Энджелсон, Голшифте Фарахани, Тейт Донован, Джулианна Маргулис, Сюзанн Савой-О фильме:-Пентхаус в Нью Йорке, целый гараж коллекционных автомобилей и миллиарды скучающих президентов на банковском счету. Если есть тот, кто готов рискнуть состоянием ради минуты подлинного счастья, найдется и тот, кто ему в этом поможет.- -Страна: США
Студия: Escape Artists, Lantern Entertainment (II), The Weinstein Company LLC
Продолжительность: 02:05:50
Перевод:
Профессиональный (полное дублирование) | Лицензия-Файл-Качество: BDRip 1080p
Формат: MKV
Кодек: MPEG-4 AVC
Видео: 1920x1040 (1,85:1), 23,976 fps, MPEG-4 AVC ~ 12,0 Мbps avg, 0.251 bit/pixel
Аудио: DTS, 48 kHz, 6 ch, ~1510.00 kbps avg | русский | Лицензия
Аудио: AC3, 48 kHz, 6 ch, ~640.00 kbps avg | русский | Лицензия
Аудио: DTS, 48 kHz, 6 ch, ~1509.00.00 kbps avg | английский | Оригинал-Субтитры: Русские (Full), английские (Full, SDH)-

Инфо-файл

-Общее
Уникальный идентификатор : 285123733765057142073518292495380270265 (0xD680D56B7C8258B63222B684E6284CB9)
Полное имя : The.Upside.2018.1080p.BluRay.DTS.x264.Rus.Eng.mkv
Формат : Matroska
Версия формата : Version 4 / Version 2
Размер файла : 13,8 Гбайт
Продолжительность : 2 ч. 5 м.
Общий поток : 15,7 Мбит/сек
Название фильма : 1+1: Голливудская история / The Upside (2018)
Дата кодирования : UTC 2019-05-23 10:20:59
Программа кодирования : mkvmerge v27.0.0 ('Metropolis') 64-bit
Библиотека кодирования : libebml v1.3.6 + libmatroska v1.4.9
Обложка : Yes
Attachments : cover.jpg
Видео
Идентификатор : 1
Формат : AVC
Формат/Информация : Advanced Video Codec
Профиль формата : [email protected]
Настройки формата : CABAC / 4 Ref Frames
Параметр CABAC формата : Да
Параметр RefFrames формата : 4 кадра
Идентификатор кодека : V_MPEG4/ISO/AVC
Продолжительность : 2 ч. 5 м.
Битрейт : 12,0 Мбит/сек
Ширина : 1920 пикселей
Высота : 1040 пикселей
Соотношение сторон : 1,85:1
Режим частоты кадров : Постоянный
Частота кадров : 23,976 (24000/1001) кадра/сек
Цветовое пространство : YUV
Субдискретизация насыщенности : 4:2:0
Битовая глубина : 8 бит
Тип развёртки : Прогрессивная
Бит/(Пиксели*Кадры) : 0.251
Размер потока : 10,5 Гбайт (77%)
Заголовок : SbR
Библиотека кодирования : x264 core 152 r2851kMod ba24899
Настройки программы : cabac=1 / ref=4 / deblock=1:-3:-3 / analyse=0x3:0x133 / me=umh / subme=10 / psy=1 / fade_compensate=0.00 / psy_rd=1.03:0.00 / mixed_ref=1 / me_range=32 / chroma_me=1 / trellis=2 / 8x8dct=1 / cqm=0 / deadzone=21,11 / fast_pskip=0 / chroma_qp_offset=-2 / threads=6 / lookahead_threads=1 / sliced_threads=0 / nr=0 / decimate=1 / interlaced=0 / bluray_compat=0 / constrained_intra=0 / bframes=8 / b_pyramid=2 / b_adapt=2 / b_bias=0 / direct=3 / weightb=1 / open_gop=0 / weightp=2 / keyint=250 / keyint_min=23 / scenecut=40 / intra_refresh=0 / rc=2pass / mbtree=0 / bitrate=12000 / ratetol=1.0 / qcomp=0.70 / qpmin=0 / qpmax=69 / qpstep=4 / cplxblur=20.0 / qblur=0.5 / ip_ratio=1.30 / pb_ratio=1.20 / aq=3:0.80
Язык : English
Default : Да
Forced : Нет
Цветовой диапазон : Limited
Коэффициенты матрицы : BT.709
Аудио #1
Идентификатор : 2
Формат : DTS
Формат/Информация : Digital Theater Systems
Идентификатор кодека : A_DTS
Продолжительность : 2 ч. 5 м.
Вид битрейта : Постоянный
Битрейт : 1510 Кбит/сек
Каналы : 6 каналов
Расположение каналов : Front: L C R, Side: L R, LFE
Частота : 48,0 КГц
Частота кадров : 93,750 кадра/сек (512 SPF)
Битовая глубина : 24 бит
Метод сжатия : С потерями
Размер потока : 1,33 Гбайт (10%)
Заголовок : Blu-ray RUS
Язык : Russian
Default : Да
Forced : Нет
Аудио #2
Идентификатор : 3
Формат : AC-3
Формат/Информация : Audio Coding 3
Идентификатор кодека : A_AC3
Продолжительность : 2 ч. 5 м.
Вид битрейта : Постоянный
Битрейт : 640 Кбит/сек
Каналы : 6 каналов
Расположение каналов : Front: L C R, Side: L R, LFE
Частота : 48,0 КГц
Частота кадров : 31,250 кадров/сек (1536 SPF)
Битовая глубина : 16 бит
Метод сжатия : С потерями
Размер потока : 576 Мбайт (4%)
Заголовок : Blu-ray RUS
Язык : Russian
Default : Нет
Forced : Нет
Аудио #3
Идентификатор : 4
Формат : DTS
Формат/Информация : Digital Theater Systems
Идентификатор кодека : A_DTS
Продолжительность : 2 ч. 5 м.
Вид битрейта : Постоянный
Битрейт : 1509 Кбит/сек
Каналы : 6 каналов
Расположение каналов : Front: L C R, Side: L R, LFE
Частота : 48,0 КГц
Частота кадров : 93,750 кадра/сек (512 SPF)
Битовая глубина : 24 бит
Метод сжатия : С потерями
Размер потока : 1,33 Гбайт (10%)
Заголовок : Original
Язык : English
Default : Нет
Forced : Нет
Текст #1
Идентификатор : 5
Формат : UTF-8
Идентификатор кодека : S_TEXT/UTF8
Идентификатор кодека/Информация : UTF-8 Plain Text
Продолжительность : 2 ч. 4 м.
Битрейт : 69 бит/сек
ElementCount : 1540
Размер потока : 63,2 Кбайт (0%)
Заголовок : Full
Язык : Russian
Default : Нет
Forced : Нет
Текст #2
Идентификатор : 6
Формат : UTF-8
Идентификатор кодека : S_TEXT/UTF8
Идентификатор кодека/Информация : UTF-8 Plain Text
Продолжительность : 1 ч. 59 м.
Битрейт : 59 бит/сек
ElementCount : 1762
Размер потока : 52,5 Кбайт (0%)
Заголовок : Full
Язык : English
Default : Нет
Forced : Нет
Текст #3
Идентификатор : 7
Формат : UTF-8
Идентификатор кодека : S_TEXT/UTF8
Идентификатор кодека/Информация : UTF-8 Plain Text
Продолжительность : 2 ч. 2 м.
Битрейт : 63 бит/сек
ElementCount : 1950
Размер потока : 56,6 Кбайт (0%)
Заголовок : SDH
Язык : English
Default : Нет
Forced : Нет
Меню
00:00:00.000 : :Studio Logo
00:00:37.000 : :Title Sequence
00:01:07.025 : :Dell has some fun in Philip's car
00:04:40.947 : :Everyone has to make an effort
00:06:45.947 : :Interviewing for Philip's new caregiver
00:15:33.891 : :Dell goes to pick up Anthony
00:20:15.965 : :Dreaming of better days
00:21:04.472 : :Dell accepts the job offer
00:29:01.782 : :Dell learns the ins and outs of his position
00:32:18.895 : :A sleepless night for everyone
00:33:34.304 : :Dell gets strike two
00:36:11.586 : :A day in the life with Philip
00:41:04.545 : :Dell wants to see Anthony
00:44:02.765 : :Philip has an incident and tells Dell what happened
00:51:27.793 : :Dell wins his bet
00:55:38.627 : :Dell has to fill in for Maggie
01:00:16.613 : :Dell brings over a surprise for Philip
01:01:16.298 : :Dell and Phillip are at Opera
01:04:01.004 : :Philip starts to pick up old habits
01:08:09.711 : :Learning to enjoy life again
01:09:16.819 : :An epistolary relationship
01:14:14.825 : :It's important to encourage potential
01:17:06.705 : :Philip spends time with Dell and Anthony
01:21:30.010 : :A necessary release of anger
01:26:28.850 : :Time to enjoy the party
01:33:50.500 : :Philip meets Lily
01:42:26.557 : :It's time to move forward
01:48:09.191 : :Maybe Philip will listen to Dell
01:51:15.711 : :Dell takes Philippe for a drive upstate
01:54:52.636 : :The best is yet to come
01:58:24.431 : :End Credits-
-

Скриншоты

--
-
[Профиль] [ЛС]
Показать сообщения:    
Ответить на тему

Текущее время: 17-Сен 02:42

Часовой пояс: UTC + 4



Вы не можете начинать темы
Вы не можете отвечать на сообщения
Вы не можете редактировать свои сообщения
Вы не можете удалять свои сообщения
Вы не можете голосовать в опросах
Вы не можете прикреплять файлы к сообщениям
Вы можете скачивать файлы
Анализ сайта korsars.info Яндекс.Метрика