Время монстров / The Head Hunter (Джордан Дауни) [2018, ужасы, фэнтези, BDRip 1080p от селезень | iTunes]

Ответить на тему
 
Автор Сообщение

Skorp10n ®

Оффлайн

Активный раздающий 1Активный раздающий 2Активный релизер 1000Активный релизер 1500
Активный релизер 2000Активный релизер 250Активный релизер 3000Активный релизер 500Активный релизер 5000Активный релизер Фильмов (1000)Активный релизер Фильмов (300)Активный релизер Фильмов (600)Активный Форумчанин 1Активный Форумчанин 2Активный Форумчанин 3Активный Форумчанин 4Друг трекераКарма 1000Карма 1500Карма 3000Карма 500МеценатНи дня без новостейОрденосец 1 степениОрденосец 2 степениОрденосец 3 степениПочетный орденосецПочетный репортерС Новым 2016 Годом!С Новым 2017 Годом!С Новым 2018 Годом!С Новым 2019 Годом!Супер Мега Контер КвейкТОП-10

Пол: Мужской

Стаж: 4 года 1 месяц

Наличие запрета:

Сообщений: 11658

Откуда: Free-Tor.com

Отдача: не определено

Загрузка: не определено

Нажми

Создавать темы 15-Июн-2019 15:10

[Цитировать]

Информация о фильме- Название: Время монстров
Оригинальное название: The Head Hunter
Год выхода: 2018
Жанр: Ужасы, фэнтези
Режиссер: Джордан Дауни
В ролях: Кристофер Рай, Кора Кауфман- -О фильме: Средневековый воин живёт отшельником в мрачном лесу и жаждет отомстить смертельно опасному существу за смерть единственной дочери. Получая от короля сведения о появляющихся в округе монстрах, он отправляется за их головами, каждый раз надеясь, что встретит своего заклятого врага.-Страна: США
Студия: Brayne Studios, Detention Films
Продолжительность: 01:12:27
Перевод: Дублированный | iTunes-Качество: BDRip 1080p
Видео: MPEG-4 AVC, 1920x1080, 13.7 Mbit/s, 23.976 fps
Звук:
Аудио #01: 48 kHz, AC3, 5.1, 384 Kbps | iTunes | RUS |
Аудио #02: 48 kHz, AC3, 5.1, 640 Kbps | Оригинал | ENG | -

Скриншоты

--
-

MI

-General
Unique ID : 20931718466223628888197494115625827840 (0xFBF4D66089661DC40AD67E7E17B7E00)
Complete name : D:Video111The.Head.Hunter.2018.BDRip.1080p.seleZen.mkv
Format : Matroska
Format version : Version 4
File size : 7.40 GiB
Duration : 1 h 12 min
Overall bit rate : 14.6 Mb/s
Movie name : The Head Hunter 2018 from селезень
Encoded date : UTC 2019-06-13 08:09:23
Writing application : mkvmerge v33.1.0 ('Primrose') 64-bit
Writing library : libebml v1.3.7 + libmatroska v1.5.0
Video
ID : 1
Format : AVC
Format/Info : Advanced Video Codec
Format profile : [email protected]
Format settings : CABAC / 4 Ref Frames
Format settings, CABAC : Yes
Format settings, Reference : 4 frames
Codec ID : V_MPEG4/ISO/AVC
Duration : 1 h 12 min
Bit rate : 13.7 Mb/s
Width : 1 920 pixels
Height : 1 080 pixels
Display aspect ratio : 16:9
Frame rate mode : Constant
Frame rate : 23.976 (24000/1001) FPS
Color space : YUV
Chroma subsampling : 4:2:0
Bit depth : 8 bits
Scan type : Progressive
Bits/(Pixel*Frame) : 0.275
Stream size : 6.88 GiB (93%)
Writing library : x264 core 148 r2705kMod 3f5ed56
Encoding settings : cabac=1 / ref=4 / deblock=1:-2:-2 / analyse=0x3:0x133 / me=umh / subme=10 / psy=1 / fade_compensate=0.00 / psy_rd=1.20:0.07 / mixed_ref=1 / me_range=32 / chroma_me=1 / trellis=2 / 8x8dct=1 / cqm=0 / deadzone=21,11 / fast_pskip=0 / chroma_qp_offset=-3 / threads=12 / lookahead_threads=2 / sliced_threads=0 / nr=0 / decimate=0 / interlaced=0 / bluray_compat=0 / constrained_intra=0 / fgo=0 / bframes=8 / b_pyramid=2 / b_adapt=2 / b_bias=0 / direct=3 / weightb=1 / open_gop=0 / weightp=2 / keyint=240 / keyint_min=23 / scenecut=40 / intra_refresh=0 / rc_lookahead=50 / rc=2pass / mbtree=0 / bitrate=13659 / ratetol=1.0 / qcomp=0.60 / qpmin=0 / qpmax=51 / qpstep=4 / cplxblur=20.0 / qblur=0.5 / vbv_maxrate=50000 / vbv_bufsize=62500 / nal_hrd=none / filler=0 / ip_ratio=1.40 / pb_ratio=1.30 / aq=3:0.80
Language : English
Default : Yes
Forced : No
Audio #1
ID : 2
Format : AC-3
Format/Info : Audio Coding 3
Commercial name : Dolby Digital
Codec ID : A_AC3
Duration : 1 h 12 min
Bit rate mode : Constant
Bit rate : 384 kb/s
Channel(s) : 6 channels
Channel layout : L R C LFE Ls Rs
Sampling rate : 48.0 kHz
Frame rate : 31.250 FPS (1536 SPF)
Bit depth : 16 bits
Compression mode : Lossy
Stream size : 198 MiB (3%)
Title : iTunes
Language : Russian
Service kind : Complete Main
Default : Yes
Forced : Yes
Audio #2
ID : 3
Format : AC-3
Format/Info : Audio Coding 3
Commercial name : Dolby Digital
Codec ID : A_AC3
Duration : 1 h 12 min
Bit rate mode : Constant
Bit rate : 640 kb/s
Channel(s) : 6 channels
Channel layout : L R C LFE Ls Rs
Sampling rate : 48.0 kHz
Frame rate : 31.250 FPS (1536 SPF)
Bit depth : 16 bits
Compression mode : Lossy
Stream size : 332 MiB (4%)
Title : Original
Language : English
Service kind : Complete Main
Default : No
Forced : No
Menu
00:00:00.000 : en:Глава 01
00:05:32.374 : en:Глава 02
00:12:24.869 : en:Глава 03
00:18:25.396 : en:Глава 04
00:25:51.759 : en:Глава 05
00:30:01.800 : en:Глава 06
00:36:04.537 : en:Глава 07
00:42:41.476 : en:Глава 08
00:49:05.109 : en:Глава 09
00:53:28.622 : en:Глава 10
01:01:16.756 : en:Глава 11
01:08:15.925 : en:Глава 12-
-Релиз: -
[Профиль] [ЛС]
Показать сообщения:    
Ответить на тему

Текущее время: 17-Сен 02:46

Часовой пояс: UTC + 4



Вы не можете начинать темы
Вы не можете отвечать на сообщения
Вы не можете редактировать свои сообщения
Вы не можете удалять свои сообщения
Вы не можете голосовать в опросах
Вы не можете прикреплять файлы к сообщениям
Вы можете скачивать файлы
Анализ сайта korsars.info Яндекс.Метрика