Детские игры / Child's Play (Ларс Клевберг) [2019, ужасы, TS 720p | D]

Тема закрыта
 
Автор Сообщение

Skorp10n ®

Оффлайн

Активный раздающий 1Активный раздающий 2Активный релизер 1000Активный релизер 1500
Активный релизер 2000Активный релизер 250Активный релизер 3000Активный релизер 500Активный релизер 5000Активный релизер Фильмов (1000)Активный релизер Фильмов (300)Активный релизер Фильмов (600)Активный Форумчанин 1Активный Форумчанин 2Активный Форумчанин 3Активный Форумчанин 4Друг трекераКарма 1000Карма 1500Карма 3000Карма 500МеценатНи дня без новостейОрденосец 1 степениОрденосец 2 степениОрденосец 3 степениПочетный орденосецПочетный репортерС Новым 2016 Годом!С Новым 2017 Годом!С Новым 2018 Годом!С Новым 2019 Годом!Супер Мега Контер КвейкТОП-10

Пол: Мужской

Стаж: 4 года 1 месяц

Наличие запрета:

Сообщений: 11660

Откуда: Free-Tor.com

Отдача: не определено

Загрузка: не определено

Нажми

Создавать темы 26-Июн-2019 13:51

[Цитировать]

Год выхода: 2019
Страна: Франция, Канада, США
Жанр: ужасы
Продолжительность: 01:27:01
Перевод: Профессиональный (полное дублирование)
Субтитры: Отсутствуют
Режиссер: Ларс Клевберг
В ролях: Обри Плаза, Марк Хэмилл, Гэбриел Бейтман, Брайан Тайри Генри, Тим Мэтисон, Дэвид Льюис, Беатрис Китсос, Ханна Дрю, Трент Редекоп, Эмбер Тейлор-О фильме:-Мать-одиночка Карен дарит своему сыну Энди куклу, о которой мечтают все дети. Однако, вскоре становится ясно, что Энди достается больше, чем просто игрушка…- -Качество: TS 720p
Формат: MKV
Видео кодек: H.264
Аудио кодек: AC3
Видео: H.264 / 1280x592 / 3751 Кбит/сек / 23,976 fps
Аудио: AC-3 / 384 Кбит/сек / 2 ch / 48,0 КГц-Примечание: Присутствует реклама!-

MediaInfo

-
Уникальный идентификатор                 : 185929727852112927318987786209288132718 (0x8BE0C356BC108075B9E9EDBE4A3E186E)
Полное имя                               : Childs.play.2019.D.TS.72Op.mkv
Формат                                   : Matroska
Версия формата                           : Version 2
Размер файла                             : 2,51 Гбайт
Продолжительность                        : 1 ч. 27 м.
Режим общего битрейта                    : Переменный
Общий поток                              : 4137 Кбит/сек
Дата кодирования                         : UTC 2019-06-24 14:01:58
Программа кодирования                    : mkvmerge v8.3.0 ('Over the Horizon') 64bit
Библиотека кодирования                   : libebml v1.3.1 + libmatroska v1.4.2
Видео
Идентификатор                            : 1
Формат                                   : AVC
Формат/Информация                        : Advanced Video Codec
Профиль формата                          : [email protected]
Настройки формата                        : CABAC / 4 Ref Frames
Параметр CABAC формата                   : Да
Параметр RefFrames формата               : 4 кадра
Идентификатор кодека                     : V_MPEG4/ISO/AVC
Продолжительность                        : 1 ч. 27 м.
Вид битрейта                             : Переменный
Битрейт                                  : 3751 Кбит/сек
Максимальный битрейт                     : 4000 Кбит/сек
Ширина                                   : 1280 пикселей
Высота                                   : 592 пикселя
Соотношение сторон                       : 2,2:1
Режим частоты кадров                     : Постоянный
Частота кадров                           : 23,976 (24000/1001) кадра/сек
Стандарт вещания                         : Component
Цветовое пространство                    : YUV
Субдискретизация насыщенности            : 4:2:0
Битовая глубина                          : 8 бит
Тип развёртки                            : Прогрессивная
Бит/(Пиксели*Кадры)                      : 0.206
Размер потока                            : 2,28 Гбайт (91%)
Default                                  : Да
Forced                                   : Нет
Цветовой диапазон                        : Limited
Основные цвета                           : BT.709
Характеристики трансфера                 : BT.709
Коэффициенты матрицы                     : BT.709
Аудио
Идентификатор                            : 2
Формат                                   : AC-3
Формат/Информация                        : Audio Coding 3
Коммерческое название                    : Dolby Digital
Идентификатор кодека                     : A_AC3
Продолжительность                        : 1 ч. 27 м.
Вид битрейта                             : Постоянный
Битрейт                                  : 384 Кбит/сек
Каналы                                   : 2 канала
ChannelLayout                            : L R
Частота                                  : 48,0 КГц
Частота кадров                           : 31,250 кадров/сек (1536 SPF)
Битовая глубина                          : 16 бит
Метод сжатия                             : С потерями
Размер потока                            : 239 Мбайт (9%)
ServiceKind/String                       : Complete Main
Default                                  : Да
Forced                                   : Нет
-
-

Скриншоты

--
-
[Профиль] [ЛС]

Skorp10n ®

Оффлайн

Активный раздающий 1Активный раздающий 2Активный релизер 1000Активный релизер 1500
Активный релизер 2000Активный релизер 250Активный релизер 3000Активный релизер 500Активный релизер 5000Активный релизер Фильмов (1000)Активный релизер Фильмов (300)Активный релизер Фильмов (600)Активный Форумчанин 1Активный Форумчанин 2Активный Форумчанин 3Активный Форумчанин 4Друг трекераКарма 1000Карма 1500Карма 3000Карма 500МеценатНи дня без новостейОрденосец 1 степениОрденосец 2 степениОрденосец 3 степениПочетный орденосецПочетный репортерС Новым 2016 Годом!С Новым 2017 Годом!С Новым 2018 Годом!С Новым 2019 Годом!Супер Мега Контер КвейкТОП-10

Пол: Мужской

Стаж: 4 года 1 месяц

Наличие запрета:

Сообщений: 11660

Откуда: Free-Tor.com

Отдача: не определено

Загрузка: не определено

Нажми

Создавать темы 26-Июн-2019 13:52 (спустя 23 секунды)

[Цитировать]

T временная - до выхода лицензии!-
[Профиль] [ЛС]

4udaki

Оффлайн



Пол: Мужской

Стаж: 4 года 10 месяцев

Наличие запрета:

Сообщений: 3724

Откуда: korsars.info

Отдача: 2 Mb/s

Загрузка: 20 Mb/s

Нажми

Создавать темы 26-Июн-2019 14:24 (спустя 32 минуты)

[Цитировать]

что-то Чаки перекосило (судя по первому скриншоту) ag
[Профиль] [ЛС]

Создавать темы 12-Сен-2019 12:37 (спустя 2 месяца 15 дней)

Топик был перенесен из форума Новинки 2019 года в форум Для удаленных раздач
Причина переноса: Поглощено в пользу: http://korsars.info/viewtopic.php?t=22871
4udaki
 
Показать сообщения:    
Тема закрыта

Текущее время: 20-Сен 20:34

Часовой пояс: UTC + 4



Вы не можете начинать темы
Вы не можете отвечать на сообщения
Вы не можете редактировать свои сообщения
Вы не можете удалять свои сообщения
Вы не можете голосовать в опросах
Вы не можете прикреплять файлы к сообщениям
Вы не можете скачивать файлы
Анализ сайта korsars.info Яндекс.Метрика