Шафт / Shaft (Тим Стори) [2019, боевик, комедия, криминал, WEB-DLRip 720p от k.e.n & MegaPeer | D]

Ответить на тему
 
Автор Сообщение

Skorp10n ®

Оффлайн

Активный раздающий 1Активный раздающий 2Активный релизер 1000Активный релизер 1500
Активный релизер 2000Активный релизер 250Активный релизер 3000Активный релизер 500Активный релизер 5000Активный релизер Фильмов (1000)Активный релизер Фильмов (300)Активный релизер Фильмов (600)Активный Форумчанин 1Активный Форумчанин 2Активный Форумчанин 3Активный Форумчанин 4Друг трекераКарма 1000Карма 1500Карма 3000Карма 500МеценатНи дня без новостейОрденосец 1 степениОрденосец 2 степениОрденосец 3 степениПочетный орденосецПочетный репортерС Новым 2016 Годом!С Новым 2017 Годом!С Новым 2018 Годом!С Новым 2019 Годом!Супер Мега Контер КвейкТОП-10

Пол: Мужской

Стаж: 4 года 4 месяца

Наличие запрета:

Сообщений: 11681

Откуда: korsars.info

Отдача: 2 Mb/s

Загрузка: 20 Mb/s

Нажми

Создавать темы 09-Июл-2019 10:48

[Цитировать]

Информация о фильме- Название: Шафт
Оригинальное название: Shaft
Год выпуска: 2019
Жанр: Боевик, комедия, криминал
Режиссер: Тим Стори
В ролях: Сэмюэл Л. Джексон, Джесси Ашер, Ричард Раундтри, Реджина Холл, Александра Шипп, Мэтт Лауриа, Титус Уэлливер, Метод Мэн, Исаак Де Банколе, Эван Джогиа-О фильме: -Джон Шафт III - специалист по кибербезопасности в ФБР, не привыкший решать проблемы грубой силой. Он предпочитает полагаться на логику и расчёт, но убийство лучшего друга ставит его в тупик. С ним не разобраться современными методами, так что Джону ничего не остается, кроме как обратиться за помощью к старшему поколению Шафтов, чьи старые методы помогут ему найти убийцу.- -Страна: США
Студия: Davis Entertainment, Khalabo Ink Society, Netflix
Продолжительность: 01:52:00
Перевод: Дублированный | NETFLiX-Файл-Формат: MKV
Качество: WEB-DLRip 720p
Видео: AVC, 1280x534, 24 fps, 2601 kbps
Аудио #1: AC3, 48 kHz, 6 ch, 448 kbps (Russian)
Аудио #2: AC3, 48 kHz, 6 ch, 448 kbps (English)
Субтитры: Русские, английские-Релиз: & -

x264 log & MediaInfo:

-x264 [info]: frame I:1964 Avg QP:15.65 size: 96095 PSNR Mean Y:48.14 U:51.40 V:51.66 Avg:48.92 Global:48.50
x264 [info]: frame P:37343 Avg QP:17.21 size: 28403 PSNR Mean Y:48.41 U:52.18 V:52.13 Avg:49.30 Global:48.42
x264 [info]: frame B:121949 Avg QP:19.91 size: 8137 PSNR Mean Y:47.89 U:51.90 V:51.89 Avg:48.79 Global:47.97
Полное имя : D:ФИЛЬМЫШафт.2019 (С.Л.Джексон).mkv
Формат : Matroska
Версия формата : Version 2
Размер файла : 2,79 Гбайт
Продолжительность : 1 ч. 51 м.
Общий поток : 3568 Кбит/сек
Дата кодирования : UTC 2019-06-29 19:27:07
Программа кодирования : mkvmerge v5.3.0 ('I could have danced') built on Feb 9 2012 10:38:07
Библиотека кодирования : libebml v1.2.3 + libmatroska v1.3.0
Обложка : Yes
Attachments : cover 1.jpg
Видео
Идентификатор : 1
Формат : AVC
Формат/Информация : Advanced Video Codec
Профиль формата : [email protected]
Настройки формата : CABAC / 12 Ref Frames
Параметр CABAC формата : Да
Параметр RefFrames формата : 12 кадров
Идентификатор кодека : V_MPEG4/ISO/AVC
Продолжительность : 1 ч. 51 м.
Битрейт : 2601 Кбит/сек
Ширина : 1280 пикселей
Высота : 534 пикселя
Соотношение сторон : 2,40:1
Режим частоты кадров : Постоянный
Частота кадров : 24,000 кадра/сек
Цветовое пространство : YUV
Субдискретизация насыщенности : 4:2:0
Битовая глубина : 8 бит
Тип развёртки : Прогрессивная
Бит/(Пиксели*Кадры) : 0.159
Размер потока : 2,03 Гбайт (73%)
Библиотека кодирования : x264 core 157 r2945 72db437
Настройки программы : cabac=1 / ref=12 / deblock=1:-3:-3 / analyse=0x3:0x133 / me=umh / subme=11 / psy=1 / psy_rd=1.10:0.20 / mixed_ref=1 / me_range=32 / chroma_me=1 / trellis=2 / 8x8dct=1 / cqm=0 / deadzone=21,11 / fast_pskip=0 / chroma_qp_offset=-3 / threads=12 / lookahead_threads=3 / sliced_threads=0 / nr=0 / decimate=0 / interlaced=0 / bluray_compat=0 / constrained_intra=0 / bframes=12 / b_pyramid=2 / b_adapt=2 / b_bias=0 / direct=1 / weightb=1 / open_gop=0 / weightp=2 / keyint=240 / keyint_min=24 / scenecut=40 / intra_refresh=0 / rc=crf / mbtree=0 / crf=18.0 / qcomp=0.70 / qpmin=0 / qpmax=69 / qpstep=4 / ip_ratio=1.30 / pb_ratio=1.26 / aq=3:0.70
Язык : English
Default : Да
Forced : Нет
Цветовой диапазон : Limited
Основные цвета : BT.709
Характеристики трансфера : BT.709
Коэффициенты матрицы : BT.709
Аудио #1
Идентификатор : 2
Формат : AC-3
Формат/Информация : Audio Coding 3
Коммерческое название : Dolby Digital
Идентификатор кодека : A_AC3
Продолжительность : 1 ч. 51 м.
Вид битрейта : Постоянный
Битрейт : 448 Кбит/сек
Каналы : 6 каналов
ChannelLayout : L R C LFE Ls Rs
Частота : 48,0 КГц
Частота кадров : 31,250 кадров/сек (1536 SPF)
Битовая глубина : 16 бит
Метод сжатия : С потерями
Размер потока : 359 Мбайт (13%)
Заголовок : DUB
Язык : Russian
ServiceKind/String : Complete Main
Default : Да
Forced : Нет
Аудио #2
Идентификатор : 3
Формат : AC-3
Формат/Информация : Audio Coding 3
Коммерческое название : Dolby Digital
Идентификатор кодека : A_AC3
Продолжительность : 1 ч. 51 м.
Вид битрейта : Постоянный
Битрейт : 448 Кбит/сек
Каналы : 6 каналов
ChannelLayout : L R C LFE Ls Rs
Частота : 48,0 КГц
Частота кадров : 31,250 кадров/сек (1536 SPF)
Битовая глубина : 16 бит
Метод сжатия : С потерями
Размер потока : 359 Мбайт (13%)
Заголовок : Original
Язык : English
ServiceKind/String : Complete Main
Default : Нет
Forced : Нет
Текст #1
Идентификатор : 4
Формат : UTF-8
Идентификатор кодека : S_TEXT/UTF8
Идентификатор кодека/Информация : UTF-8 Plain Text
Заголовок : Full
Язык : Russian
Default : Нет
Forced : Нет
Текст #2
Идентификатор : 5
Формат : UTF-8
Идентификатор кодека : S_TEXT/UTF8
Идентификатор кодека/Информация : UTF-8 Plain Text
Заголовок : SDH
Язык : English
Default : Нет
Forced : Нет-
-

Скриншоты

--
-
[Профиль] [ЛС]
Показать сообщения:    
Ответить на тему

Текущее время: 14-Дек 20:26

Часовой пояс: UTC + 4



Вы не можете начинать темы
Вы не можете отвечать на сообщения
Вы не можете редактировать свои сообщения
Вы не можете удалять свои сообщения
Вы не можете голосовать в опросах
Вы не можете прикреплять файлы к сообщениям
Вы можете скачивать файлы
Анализ сайта korsars.info Яндекс.Метрика