Двадцать одно / 21 (Роберт Лукетич) [2008, драма, криминал, BDRip 720p от FREEISLAND | D]

Ответить на тему
 
Автор Сообщение

Skorp10n ®

Оффлайн

Активный раздающий 1Активный раздающий 2Активный релизер 1000Активный релизер 1500
Активный релизер 2000Активный релизер 250Активный релизер 3000Активный релизер 500Активный релизер 5000Активный релизер Фильмов (1000)Активный релизер Фильмов (300)Активный релизер Фильмов (600)Активный Форумчанин 1Активный Форумчанин 2Активный Форумчанин 3Активный Форумчанин 4Друг трекераКарма 1000Карма 1500Карма 3000Карма 500МеценатНи дня без новостейОрденосец 1 степениОрденосец 2 степениОрденосец 3 степениПочетный орденосецПочетный репортерС Новым 2016 Годом!С Новым 2017 Годом!С Новым 2018 Годом!С Новым 2019 Годом!Супер Мега Контер КвейкТОП-10

Пол: Мужской

Стаж: 4 года 4 месяца

Наличие запрета:

Сообщений: 11681

Откуда: korsars.info

Отдача: 2 Mb/s

Загрузка: 20 Mb/s

Нажми

Создавать темы 10-Июл-2019 15:05

[Цитировать]

Информация о фильме- Название: Двадцать одно
Оригинальное название: 21
Год выхода: 2008
Жанр: драма, криминал
Режиссер: Роберт Лукетич
В ролях: Джим Стерджесс, Кевин Спейси, Кейт Босворт, Аарон Йу, Лиза Лапира, Джейкоб Питтс, Лоуренс Фишборн, Джек МакГи, Джош Гад, Сэм Голзари-О фильме:-Карточная игра - комбинация уникальных математических расчетов, превосходных актерских талантов и хладнокровной выдержки. Карточный игрок - человек особого склада. Молодые люди решили провернуть аферу века и разорить крупнейшие казино страны на астрономическую сумму. Они решили взять Вегас! Их пятеро. Игра захватила их целиком. Их игра поразила своей виртуозностью. Они изменили ход самой игры.- -Страна: США
Студия: Columbia Pictures
Продолжительность: 02:02:41
Перевод: Дублированный-Файл-Кодек: H.264
Качество: BDRip 720p
Видео: MPEG4/ISO/AVC , 1280x534 (2.40:1) 23.976 fps ~ 4111 kbps , [email protected]
Звук:
Русский, AC3, (L,R,C,Ls,Rs+LFE), 48 кГц,640 kbps avg
Английский , AC3, (L,R,C,Ls,Rs+LFE), 48 кГц,640 kbps avg
Субтитры: русские , английские (srt)- -

MI

-Полное имя : D:СКАЧАННЫЕ21(2008)BDRip720p.mkv
Формат : Matroska
Версия формата : Version 2
Размер файла : 4,71 Гбайт
Продолжительность : 2 ч. 2 м.
Общий поток : 5501 Кбит/сек
Дата кодирования : UTC 2011-12-28 06:44:37
Программа кодирования : mkvmerge v5.1.0 ('And so it goes') built on Nov 28 2011 23:58:28
Библиотека кодирования : libebml v1.2.3 + libmatroska v1.3.0
Видео
Идентификатор : 1
Формат : AVC
Формат/Информация : Advanced Video Codec
Профиль формата : [email protected]
Параметр CABAC формата : Да
Параметр ReFrames формата : 12 кадров
Идентификатор кодека : V_MPEG4/ISO/AVC
Продолжительность : 2 ч. 2 м.
Битрейт : 4111 Кбит/сек
Ширина : 1280 пикселей
Высота : 534 пикселя
Соотношение сторон : 2,40:1
Режим частоты кадров : Постоянный
Частота кадров : 23,976 (24000/1001) кадра/сек
Цветовое пространство : YUV
Субдискретизация насыщенности : 4:2:0
Битовая глубина : 8 бит
Тип развёртки : Прогрессивная
Бит/(Пиксели*Кадры) : 0.251
Размер потока : 3,52 Гбайт (75%)
Библиотека кодирования : x264 core 120 r2120 0c7dab9
Настройки программы : cabac=1 / ref=12 / deblock=1:-2:-2 / analyse=0x3:0x113 / me=umh / subme=11 / psy=1 / psy_rd=1.05:0.15 / mixed_ref=1 / me_range=48 / chroma_me=1 / trellis=2 / 8x8dct=1 / cqm=0 / deadzone=21,11 / fast_pskip=0 / chroma_qp_offset=-3 / threads=6 / sliced_threads=0 / nr=0 / decimate=1 / interlaced=0 / bluray_compat=0 / constrained_intra=0 / bframes=10 / b_pyramid=2 / b_adapt=2 / b_bias=0 / direct=1 / weightb=1 / open_gop=0 / weightp=2 / keyint=240 / keyint_min=23 / scenecut=40 / intra_refresh=0 / rc_lookahead=80 / rc=crf / mbtree=1 / crf=17.8 / qcomp=0.70 / qpmin=0 / qpmax=69 / qpstep=4 / vbv_maxrate=50000 / vbv_bufsize=62500 / crf_max=0.0 / nal_hrd=none / ip_ratio=1.40 / aq=2:0.90
Язык : English
Default : Да
Forced : Нет
Аудио #1
Идентификатор : 2
Формат : AC-3
Формат/Информация : Audio Coding 3
Расширение режима : CM (complete main)
Параметр Endianness формата : Big
Идентификатор кодека : A_AC3
Продолжительность : 2 ч. 2 м.
Вид битрейта : Постоянный
Битрейт : 640 Кбит/сек
Каналы : 6 каналов
Расположение каналов : Front: L C R, Side: L R, LFE
Частота : 48,0 КГц
Частота кадров : 31,250 кадров/сек (1536 spf)
Битовая глубина : 16 бит
Метод сжатия : С потерями
Размер потока : 562 Мбайт (12%)
Язык : Russian
Default : Да
Forced : Нет
Аудио #2
Идентификатор : 3
Формат : AC-3
Формат/Информация : Audio Coding 3
Расширение режима : CM (complete main)
Параметр Endianness формата : Big
Идентификатор кодека : A_AC3
Продолжительность : 2 ч. 2 м.
Вид битрейта : Постоянный
Битрейт : 640 Кбит/сек
Каналы : 6 каналов
Расположение каналов : Front: L C R, Side: L R, LFE
Частота : 48,0 КГц
Частота кадров : 31,250 кадров/сек (1536 spf)
Битовая глубина : 16 бит
Метод сжатия : С потерями
Размер потока : 562 Мбайт (12%)
Язык : English
Default : Нет
Forced : Нет
Текст #1
Идентификатор : 4
Формат : UTF-8
Идентификатор кодека : S_TEXT/UTF8
Идентификатор кодека/Информация : UTF-8 Plain Text
Язык : Russian
Default : Да
Forced : Нет
Текст #2
Идентификатор : 5
Формат : UTF-8
Идентификатор кодека : S_TEXT/UTF8
Идентификатор кодека/Информация : UTF-8 Plain Text
Язык : English
Default : Нет
Forced : Нет
Меню
00:00:00.000 : en:Chapter 01
00:08:00.271 : en:Chapter 02
00:16:36.912 : en:Chapter 03
00:23:36.957 : en:Chapter 04
00:29:16.963 : en:Chapter 05
00:32:03.963 : en:Chapter 06
00:40:51.615 : en:Chapter 07
00:48:13.890 : en:Chapter 08
00:55:44.758 : en:Chapter 09
01:04:20.356 : en:Chapter 10
01:12:50.616 : en:Chapter 11
01:22:15.680 : en:Chapter 12
01:30:05.274 : en:Chapter 13
01:38:09.884 : en:Chapter 14
01:45:18.145 : en:Chapter 15
01:48:58.990 : en:Chapter 16-
-

Скриншоты

--
-Релиз от: -
[Профиль] [ЛС]
Показать сообщения:    
Ответить на тему

Текущее время: 14-Дек 20:28

Часовой пояс: UTC + 4



Вы не можете начинать темы
Вы не можете отвечать на сообщения
Вы не можете редактировать свои сообщения
Вы не можете удалять свои сообщения
Вы не можете голосовать в опросах
Вы не можете прикреплять файлы к сообщениям
Вы можете скачивать файлы
Анализ сайта korsars.info Яндекс.Метрика