Двадцать одно / 21 (Роберт Лукетич) [2008, драма, криминал, BDRip 1080p от FREEISLAND | D]

Ответить на тему
 
Автор Сообщение

Skorp10n ®

Оффлайн

Активный раздающий 1Активный раздающий 2Активный релизер 1000Активный релизер 1500
Активный релизер 2000Активный релизер 250Активный релизер 3000Активный релизер 500Активный релизер 5000Активный релизер Фильмов (1000)Активный релизер Фильмов (300)Активный релизер Фильмов (600)Активный Форумчанин 1Активный Форумчанин 2Активный Форумчанин 3Активный Форумчанин 4Друг трекераКарма 1000Карма 1500Карма 3000Карма 500МеценатНи дня без новостейОрденосец 1 степениОрденосец 2 степениОрденосец 3 степениПочетный орденосецПочетный репортерС Новым 2016 Годом!С Новым 2017 Годом!С Новым 2018 Годом!С Новым 2019 Годом!Супер Мега Контер КвейкТОП-10

Пол: Мужской

Стаж: 4 года 4 месяца

Наличие запрета:

Сообщений: 11681

Откуда: korsars.info

Отдача: 2 Mb/s

Загрузка: 20 Mb/s

Нажми

Создавать темы 10-Июл-2019 15:05

[Цитировать]

Двадцать одно
21
«В Вегасе ты можешь стать кем угодно»
- Год выпуска: 2008
Страна: США
Жанр: драма, криминал
Продолжительность: 02:02:41
Перевод: Профессиональный дублированный-Режиссер: Роберт Лукетич / Robert Luketic- -В ролях: Джим Стёрджесс (Ben), Кевин Спейси (Micky Rosa), Кейт Босворт (Jill), Аарон Йу (Choi), Лиза Лапира (Kianna), Джекоб Питтс (Fisher), Лоренс Фишбёрн (Cole Williams), Джек МакГи (Terry), Джош Гад (Miles), Сэм Голзари (Cam), Хелен Кэри (Ellen Campbell), Джек Гилпин (Bob Phillips)-Описание: Карточная игра - комбинация уникальных математических расчетов, превосходных актерских талантов и хладнокровной выдержки. Карточный игрок - человек особого склада. Молодые люди решили провернуть аферу века и разорить крупнейшие казино страны на астрономическую сумму. Они решили взять Вегас! Их пятеро. Игра захватила их целиком. Их игра поразила своей виртуозностью. Они изменили ход самой игры.- -MPAA: PG-13 - Детям до 13 лет просмотр не желателен-
Качество: BDRip
Контейнер: MKV
Видео: AVC, 1920x800 (2.40:1), 8188 kbps, 23,976 fps, 0,222 bpp
Аудио №1: русский /; AC3 /; 5.1 /; 48 kHz /; 640 kbps /; 16 bit
Аудио №2: английский /; AC3 /; 5.1 /; 48 kHz /; 448 kbps /; 16 bit
Субтитры №1: русские
Субтитры №2: английские
Навигация по главам: есть-

Media Info

-General
Unique ID : 228011072645826845825123411704011123018 (0xAB8955D2AF4FF16397B59F1EC419694A)
Complete name : E:21 (2008) BDRip 1080p.F-HD.mkv
Format : Matroska
Format version : Version 4 / Version 2
File size : 7.94 GiB
Duration : 2h 2mn
Overall bit rate : 9 270 Kbps
Encoded date : UTC 2013-02-17 08:50:18
Writing application : mkvmerge v6.0.0 ('Coming Up For Air') built on Jan 20 2013 09:52:00
Writing library : libebml v1.3.0 + libmatroska v1.4.0
Video
ID : 1
Format : AVC
Format/Info : Advanced Video Codec
Format profile : [email protected]
Format settings, CABAC : Yes
Format settings, ReFrames : 5 frames
Codec ID : V_MPEG4/ISO/AVC
Duration : 2h 2mn
Bit rate : 8 188 Kbps
Width : 1 920 pixels
Height : 800 pixels
Display aspect ratio : 2.40:1
Frame rate : 23.976 fps
Color space : YUV
Chroma subsampling : 4:2:0
Bit depth : 8 bits
Scan type : Progressive
Bits/(Pixel*Frame) : 0.222
Stream size : 6.85 GiB (86%)
Writing library : x264 core 129 r2230 1cffe9f
Encoding settings : cabac=1 / ref=5 / deblock=1:-3:-3 / analyse=0x3:0x113 / me=umh / subme=10 / psy=1 / psy_rd=1.00:0.05 / mixed_ref=1 / me_range=48 / chroma_me=1 / trellis=2 / 8x8dct=1 / cqm=0 / deadzone=21,11 / fast_pskip=0 / chroma_qp_offset=-3 / threads=6 / lookahead_threads=1 / sliced_threads=0 / nr=0 / decimate=1 / interlaced=0 / bluray_compat=0 / constrained_intra=0 / bframes=9 / b_pyramid=2 / b_adapt=2 / b_bias=0 / direct=3 / weightb=1 / open_gop=0 / weightp=2 / keyint=240 / keyint_min=23 / scenecut=40 / intra_refresh=0 / rc=2pass / mbtree=0 / bitrate=8188 / ratetol=1.0 / qcomp=0.70 / qpmin=0 / qpmax=69 / qpstep=4 / cplxblur=20.0 / qblur=0.5 / ip_ratio=1.40 / pb_ratio=1.30 / aq=1:0.80
Language : English
Default : Yes
Forced : No
Color primaries : BT.709-5, BT.1361, IEC 61966-2-4, SMPTE RP177
Transfer characteristics : BT.709-5, BT.1361
Matrix coefficients : BT.709-5, BT.1361, IEC 61966-2-4 709, SMPTE RP177
Audio #1
ID : 2
Format : AC-3
Format/Info : Audio Coding 3
Mode extension : CM (complete main)
Codec ID : A_AC3
Duration : 2h 2mn
Bit rate mode : Constant
Bit rate : 640 Kbps
Channel(s) : 6 channels
Channel positions : Front: L C R, Side: L R, LFE
Sampling rate : 48.0 KHz
Bit depth : 16 bits
Compression mode : Lossy
Stream size : 562 MiB (7%)
Language : Russian
Default : Yes
Forced : No
Audio #2
ID : 3
Format : AC-3
Format/Info : Audio Coding 3
Mode extension : CM (complete main)
Codec ID : A_AC3
Duration : 2h 2mn
Bit rate mode : Constant
Bit rate : 448 Kbps
Channel(s) : 6 channels
Channel positions : Front: L C R, Side: L R, LFE
Sampling rate : 48.0 KHz
Bit depth : 16 bits
Compression mode : Lossy
Stream size : 393 MiB (5%)
Language : English
Default : No
Forced : No
Text #1
ID : 4
Format : UTF-8
Codec ID : S_TEXT/UTF8
Codec ID/Info : UTF-8 Plain Text
Language : Russian
Default : No
Forced : No
Text #2
ID : 5
Format : UTF-8
Codec ID : S_TEXT/UTF8
Codec ID/Info : UTF-8 Plain Text
Language : English
Default : No
Forced : No
Menu
00:00:00.000 : en:Logos/Title/Credits
00:08:00.271 : en:"Bird Dog, It's Bat 21!"
00:16:36.912 : en:Undercover of Night
00:23:36.957 : en:Cards and Conversation
00:29:16.963 : en:"Too Damn Close!"
00:32:03.963 : en:Heading Fro the Swani
00:40:51.615 : en:Casualties of War
00:48:13.890 : en:Asleep at the Wheel
00:55:44.758 : en:"Looks Quiet"
01:04:20.356 : en:"Abort Mission!"
01:12:50.616 : en:A Mine Field Walk
01:22:15.680 : en:"We Lost Six People!"
01:30:05.274 : en:An Unlikely Savior
01:38:09.884 : en:Rescue at Last
01:45:18.145 : en:Stubborn Survivors
01:48:58.990 : en:"Drinks Are on Me!"
-
-

Знаете ли Вы, что...

-
  • Снят фильм по книге Бена Мезрича «Удар по казино», написанной в 2002 году и основанной на реальных событиях.
  • Всё началось в 1994 году, когда выдающегося студента MIT пригласили слетать в Алтантик-Сити на бои Холифилда. В те выходные этот паренёк увидел, как математика помогла его друзьям обыграть казино на несколько тысяч долларов за пару часов. Подобной демонстрации хватило для того, чтобы затянуть Кевина (по фильму он Бен) в мир блэкджека.
  • Бен Мезрич несколько лет собирал информацию о группе студентов MIT, использовавших усовершенствованную систему подсчёта карт. Он встречался с бывшими участниками команд, с самим главным героем, со специалистами по системам безопасности казино и со всеми остальными, кто имел хоть какое-то отношение к той истории.
  • В период с 1994 по 1998 эти одарённые студенты заработали в Вегасе несколько миллионов долларов.
  • Съёмки фильма проходили с марта 2007 года в Бостоне и Лас-Вегасе.
  • Джефф Ма (прообраз Бена Кемпбелла) засветился в роли крупье в казино Planet Hollywood.
-
-

Скриншоты

--
-Релиз от: -
[Профиль] [ЛС]
Показать сообщения:    
Ответить на тему

Текущее время: 14-Дек 20:29

Часовой пояс: UTC + 4



Вы не можете начинать темы
Вы не можете отвечать на сообщения
Вы не можете редактировать свои сообщения
Вы не можете удалять свои сообщения
Вы не можете голосовать в опросах
Вы не можете прикреплять файлы к сообщениям
Вы можете скачивать файлы
Анализ сайта korsars.info Яндекс.Метрика