Однажды в… Голливуде / Once Upon a Time ... in Hollywood (Квентин Тарантино) [2019, драма, комедия, TS | КОЛОБОК]

Ответить на тему
Статистика раздачи [Обновить пиров]
Размер:  1,37 GB   |    Зарегистрирован:  5 дней   |    .torrent скачан:  1 раз
Сидов:  12  [  0 KB/s  ]   Личеров:  8  [  0 KB/s  ]   Подробная статистика пиров
 
   
 
 
Автор Сообщение

Skorp10n ®

Оффлайн

Активный раздающий 1Активный раздающий 2Активный релизер 1000Активный релизер 1500
Активный релизер 2000Активный релизер 250Активный релизер 3000Активный релизер 500Активный релизер 5000Активный релизер Фильмов (1000)Активный релизер Фильмов (300)Активный релизер Фильмов (600)Активный Форумчанин 1Активный Форумчанин 2Активный Форумчанин 3Активный Форумчанин 4Друг трекераКарма 1000Карма 1500Карма 3000Карма 500МеценатНи дня без новостейОрденосец 1 степениОрденосец 2 степениОрденосец 3 степениПочетный орденосецПочетный репортерС Новым 2016 Годом!С Новым 2017 Годом!С Новым 2018 Годом!С Новым 2019 Годом!Супер Мега Контер КвейкТОП-10

Пол: Мужской

Стаж: 4 года 1 месяц

Наличие запрета:

Сообщений: 11658

Откуда: Free-Tor.com

Отдача: не определено

Загрузка: не определено

Нажми

Создавать темы 28-Июл-2019 11:14

[Цитировать]

Однажды в… Голливуде / Once Upon a Time ... in Hollywood- Год выхода: 2019
Страна: Великобритания, США, Китай
Жанр: драма, комедия
Продолжительность: 02:37:07
Перевод: Любительский (многоголосый, закадровый) | [КОЛОБОК]
Субтитры: Отсутствуют
Режиссер: Квентин Тарантино
В ролях: Майя Хоук, Остин Батлер, Марго Робби, Сидни Свини, Брэд Питт, Леонардо ДиКаприо, Маргарет Куэлли, Дакота Фаннинг, Тимоти Олифант, Аль Пачино-О фильме:-Фильм повествует о череде событий, произошедших в Голливуде в 1969 году, на закате его «золотого века». По сюжету, известный ТВ актер Рик Далтон и его дублер Клифф Бут пытаются найти свое место в стремительно меняющемся мире киноиндустрии.- -Качество: TS
Формат: AVI
Видео кодек: XviD
Аудио кодек: AC3
Видео: XviD / 720x304 / 1193 Кбит/сек / 23,976 fps
Аудио: AC-3 / 128 Кбит/сек / 2 ch / 48,0 КГц-Примечание: Присутствует реклама!-

Скриншоты

--
-

MediaInfo

-
Полное имя                               : OnceUponaTime...inHollywood.2O19.Pk.TS.1.46Gb.avi
Формат                                   : AVI
Формат/Информация                        : Audio Video Interleave
Размер файла                             : 1,46 Гбайт
Продолжительность                        : 2 ч. 37 м.
Общий поток                              : 1330 Кбит/сек
Программа кодирования                    : VirtualDubMod 1.5.10.3 |  (build 2550/release)
Библиотека кодирования                   : VirtualDubMod build 2550/release
Видео
Идентификатор                            : 0
Формат                                   : MPEG-4 Visual
Профиль формата                          : Advanced [email protected]
Настройки формата                        : BVOP2 / Custom Matrix
Параметр BVOP формата                    : 2
Параметр QPel формата                    : Нет
Параметр GMC формата                     : Без точки перехода
Параметр матрицы формата                 : Выборочная
Идентификатор кодека                     : XVID
Идентификатор кодека/Подсказка           : XviD
Продолжительность                        : 2 ч. 37 м.
Битрейт                                  : 1193 Кбит/сек
Ширина                                   : 720 пикселей
Высота                                   : 304 пикселя
Соотношение сторон                       : 2,35:1
Частота кадров                           : 23,976 (24000/1001) кадра/сек
Цветовое пространство                    : YUV
Субдискретизация насыщенности            : 4:2:0
Битовая глубина                          : 8 бит
Тип развёртки                            : Прогрессивная
Метод сжатия                             : С потерями
Бит/(Пиксели*Кадры)                      : 0.227
Размер потока                            : 1,31 Гбайт (90%)
Библиотека кодирования                   : XviD 1.2.1 (UTC 2008-12-04)
Аудио
Идентификатор                            : 1
Формат                                   : AC-3
Формат/Информация                        : Audio Coding 3
Коммерческое название                    : Dolby Digital
Идентификатор кодека                     : 2000
Продолжительность                        : 2 ч. 37 м.
Вид битрейта                             : Постоянный
Битрейт                                  : 128 Кбит/сек
Каналы                                   : 2 канала
ChannelLayout                            : L R
Частота                                  : 48,0 КГц
Частота кадров                           : 31,250 кадров/сек (1536 SPF)
Битовая глубина                          : 16 бит
Метод сжатия                             : С потерями
Размер потока                            : 144 Мбайт (10%)
Выравнивание                             : Разделение по промежуткам
Продолжительность промежутка             : 42  мс. (1,00 видеокадр)
Время предзагрузки промежутка            : 500  мс.
ServiceKind/String                       : Complete Main
-
-
[korsars.info].t22120.torrent 
Торрент: Зарегистрирован [ 2019-09-10 14:59 ] · B3E936CA1041A4547EA97EB67D72DE2EEF552CB2

Скачать .torrent

Скачать .torrent

15 KB

Статус: T временная
.torrent скачан: 1 раз
Размер: 1,37 GB
Правила
4udaki(28-Июл-19)
Похожие темы

[Профиль] [ЛС]

Skorp10n ®

Оффлайн

Активный раздающий 1Активный раздающий 2Активный релизер 1000Активный релизер 1500
Активный релизер 2000Активный релизер 250Активный релизер 3000Активный релизер 500Активный релизер 5000Активный релизер Фильмов (1000)Активный релизер Фильмов (300)Активный релизер Фильмов (600)Активный Форумчанин 1Активный Форумчанин 2Активный Форумчанин 3Активный Форумчанин 4Друг трекераКарма 1000Карма 1500Карма 3000Карма 500МеценатНи дня без новостейОрденосец 1 степениОрденосец 2 степениОрденосец 3 степениПочетный орденосецПочетный репортерС Новым 2016 Годом!С Новым 2017 Годом!С Новым 2018 Годом!С Новым 2019 Годом!Супер Мега Контер КвейкТОП-10

Пол: Мужской

Стаж: 4 года 1 месяц

Наличие запрета:

Сообщений: 11658

Откуда: Free-Tor.com

Отдача: не определено

Загрузка: не определено

Нажми

Создавать темы 28-Июл-2019 11:14 (спустя 26 секунд)

[Цитировать]

T временная - до выхода лицензии!-
[Профиль] [ЛС]
Показать сообщения:    
Ответить на тему

Текущее время: 16-Сен 10:28

Часовой пояс: UTC + 4



Вы не можете начинать темы
Вы не можете отвечать на сообщения
Вы не можете редактировать свои сообщения
Вы не можете удалять свои сообщения
Вы не можете голосовать в опросах
Вы не можете прикреплять файлы к сообщениям
Вы можете скачивать файлы
Анализ сайта korsars.info Яндекс.Метрика