Однажды в… Голливуде / Once Upon a Time ... in Hollywood (Квентин Тарантино) [2019, драма, комедия, TS 720p | КОЛОБОК]

Ответить на тему
Статистика раздачи [Обновить пиров]
Размер:  4,52 GB   |    Зарегистрирован:  5 дней   |    .torrent скачан:  0 раз
Сидов:  30  [  0 KB/s  ]   Личеров:  6  [  0 KB/s  ]   Подробная статистика пиров
 
   
 
 
Автор Сообщение

Skorp10n ®

Оффлайн

Активный раздающий 1Активный раздающий 2Активный релизер 1000Активный релизер 1500
Активный релизер 2000Активный релизер 250Активный релизер 3000Активный релизер 500Активный релизер 5000Активный релизер Фильмов (1000)Активный релизер Фильмов (300)Активный релизер Фильмов (600)Активный Форумчанин 1Активный Форумчанин 2Активный Форумчанин 3Активный Форумчанин 4Друг трекераКарма 1000Карма 1500Карма 3000Карма 500МеценатНи дня без новостейОрденосец 1 степениОрденосец 2 степениОрденосец 3 степениПочетный орденосецПочетный репортерС Новым 2016 Годом!С Новым 2017 Годом!С Новым 2018 Годом!С Новым 2019 Годом!Супер Мега Контер КвейкТОП-10

Пол: Мужской

Стаж: 4 года 1 месяц

Наличие запрета:

Сообщений: 11658

Откуда: Free-Tor.com

Отдача: не определено

Загрузка: не определено

Нажми

Создавать темы 28-Июл-2019 11:14

[Цитировать]

Однажды в… Голливуде / Once Upon a Time ... in Hollywood- Год выхода: 2019
Страна: Великобритания, США, Китай
Жанр: драма, комедия
Продолжительность: 02:37:07
Перевод: Любительский (многоголосый, закадровый) | [КОЛОБОК]
Субтитры: Отсутствуют
Режиссер: Квентин Тарантино
В ролях: Майя Хоук, Остин Батлер, Марго Робби, Сидни Свини, Брэд Питт, Леонардо ДиКаприо, Маргарет Куэлли, Дакота Фаннинг, Тимоти Олифант, Аль Пачино-О фильме:-Фильм повествует о череде событий, произошедших в Голливуде в 1969 году, на закате его «золотого века». По сюжету, известный ТВ актер Рик Далтон и его дублер Клифф Бут пытаются найти свое место в стремительно меняющемся мире киноиндустрии.- -Качество: TS 720p
Формат: MKV
Видео кодек: H.264
Аудио кодек: AAC
Видео: H.264 / 1280x536 / 3623 Кбит/сек / 23,976 fps
Аудио: AAC / 384 Кбит/сек / 2 ch / 48,0 КГц-Примечание: Присутствует реклама!-

Скриншоты

--
-

MediaInfo

-
Уникальный идентификатор                 : 185151143745809231438156441880410015531 (0x8B4AD02DBA7828B5A6EE877CAE4D472B)
Полное имя                               : OnceUponaTime...inHollywood.2O19.Pk.TS.72Op.mkv
Формат                                   : Matroska
Версия формата                           : Version 2
Размер файла                             : 4,40 Гбайт
Продолжительность                        : 2 ч. 37 м.
Режим общего битрейта                    : Переменный
Общий поток                              : 4007 Кбит/сек
Дата кодирования                         : UTC 2019-07-27 19:02:42
Программа кодирования                    : mkvmerge v8.3.0 ('Over the Horizon') 64bit
Библиотека кодирования                   : libebml v1.3.1 + libmatroska v1.4.2
Видео
Идентификатор                            : 1
Формат                                   : AVC
Формат/Информация                        : Advanced Video Codec
Профиль формата                          : [email protected]
Настройки формата                        : CABAC / 4 Ref Frames
Параметр CABAC формата                   : Да
Параметр RefFrames формата               : 4 кадра
Идентификатор кодека                     : V_MPEG4/ISO/AVC
Продолжительность                        : 2 ч. 37 м.
Вид битрейта                             : Переменный
Битрейт                                  : 3623 Кбит/сек
Номинальный битрейт                      : 4000 Кбит/сек
Максимальный битрейт                     : 4000 Кбит/сек
Ширина                                   : 1280 пикселей
Высота                                   : 536 пикселей
Соотношение сторон                       : 2,40:1
Режим частоты кадров                     : Постоянный
Частота кадров                           : 23,976 (24000/1001) кадра/сек
Стандарт вещания                         : Component
Цветовое пространство                    : YUV
Субдискретизация насыщенности            : 4:2:0
Битовая глубина                          : 8 бит
Тип развёртки                            : Прогрессивная
Бит/(Пиксели*Кадры)                      : 0.220
Размер потока                            : 3,98 Гбайт (90%)
Библиотека кодирования                   : x264 core 155
Настройки программы                      : cabac=1 / ref=4 / deblock=1:0:0 / analyse=0x3:0x3 / me=dia / subme=1 / psy=1 / psy_rd=1.00:0.00 / mixed_ref=0 / me_range=16 / chroma_me=1 / trellis=0 / 8x8dct=1 / cqm=1 / deadzone=21,11 / fast_pskip=1 / chroma_qp_offset=0 / threads=17 / lookahead_threads=2 / sliced_threads=0 / slices=1 / nr=0 / decimate=1 / interlaced=0 / minigop=0 / stitchable=1 / constrained_intra=0 / bframes=2 / b_pyramid=0 / b_adapt=0 / b_bias=0 / direct=1 / weightb=1 / open_gop=1 / weightp=0 / keyint=240 / keyint_min=23 / scenecut=40 / intra_refresh=0 / rc_lookahead=0 / rc=cbr / mbtree=0 / bitrate=4000 / ratetol=1.0 / qcomp=0.60 / qpmin=1 / qpmax=69 / qpstep=4 / vbv_maxrate=4000 / vbv_bufsize=4000 / nal_hrd=vbr / filler=0 / ip_ratio=1.40 / pb_ratio=1.30 / aq=1:1.00
Default                                  : Да
Forced                                   : Нет
Цветовой диапазон                        : Limited
Основные цвета                           : BT.709
Характеристики трансфера                 : BT.709
Коэффициенты матрицы                     : BT.709
Аудио
Идентификатор                            : 2
Формат                                   : AAC Main
Формат/Информация                        : Advanced Audio Codec
Идентификатор кодека                     : A_AAC-1
Продолжительность                        : 2 ч. 37 м.
Битрейт                                  : 384 Кбит/сек
Каналы                                   : 2 канала
ChannelLayout                            : L R
Частота                                  : 48,0 КГц
Частота кадров                           : 46,875 кадров/сек (1024 SPF)
Метод сжатия                             : С потерями
Размер потока                            : 429 Мбайт (10%)
Default                                  : Да
Forced                                   : Нет
-
-
[korsars.info].t22121.torrent 
Торрент: Зарегистрирован [ 2019-09-10 14:59 ] · F434770D140129143E0F61062359FDC056537236

Скачать .torrent

Скачать .torrent

24 KB

Статус: T временная
.torrent скачан: 0 раз
Размер: 4,52 GB
Правила
4udaki(28-Июл-19), ndg(28-Июл-19), Тимур(30-Июл-19)
Похожие темы

[Профиль] [ЛС]

Skorp10n ®

Оффлайн

Активный раздающий 1Активный раздающий 2Активный релизер 1000Активный релизер 1500
Активный релизер 2000Активный релизер 250Активный релизер 3000Активный релизер 500Активный релизер 5000Активный релизер Фильмов (1000)Активный релизер Фильмов (300)Активный релизер Фильмов (600)Активный Форумчанин 1Активный Форумчанин 2Активный Форумчанин 3Активный Форумчанин 4Друг трекераКарма 1000Карма 1500Карма 3000Карма 500МеценатНи дня без новостейОрденосец 1 степениОрденосец 2 степениОрденосец 3 степениПочетный орденосецПочетный репортерС Новым 2016 Годом!С Новым 2017 Годом!С Новым 2018 Годом!С Новым 2019 Годом!Супер Мега Контер КвейкТОП-10

Пол: Мужской

Стаж: 4 года 1 месяц

Наличие запрета:

Сообщений: 11658

Откуда: Free-Tor.com

Отдача: не определено

Загрузка: не определено

Нажми

Создавать темы 28-Июл-2019 11:14 (спустя 10 секунд)

[Цитировать]

T временная - до выхода лицензии!-
[Профиль] [ЛС]
Показать сообщения:    
Ответить на тему

Текущее время: 16-Сен 10:25

Часовой пояс: UTC + 4



Вы не можете начинать темы
Вы не можете отвечать на сообщения
Вы не можете редактировать свои сообщения
Вы не можете удалять свои сообщения
Вы не можете голосовать в опросах
Вы не можете прикреплять файлы к сообщениям
Вы можете скачивать файлы
Анализ сайта korsars.info Яндекс.Метрика