Тайная жизнь домашних животных 2 / The Secret Life of Pets 2 (Крис Рено, Джонатан дель Валь) [2019, мультфильм, комедия, приключения, семейный, BDRemux 1080p от селезень | HDRezka Studio]

Ответить на тему
 
Автор Сообщение

Skorp10n ®

Оффлайн

Активный раздающий 1Активный раздающий 2Активный релизер 1000Активный релизер 1500
Активный релизер 2000Активный релизер 250Активный релизер 3000Активный релизер 500Активный релизер 5000Активный релизер Фильмов (1000)Активный релизер Фильмов (300)Активный релизер Фильмов (600)Активный Форумчанин 1Активный Форумчанин 2Активный Форумчанин 3Активный Форумчанин 4Друг трекераКарма 1000Карма 1500Карма 3000Карма 500МеценатНи дня без новостейОрденосец 1 степениОрденосец 2 степениОрденосец 3 степениПочетный орденосецПочетный репортерС Новым 2016 Годом!С Новым 2017 Годом!С Новым 2018 Годом!С Новым 2019 Годом!Супер Мега Контер КвейкТОП-10

Пол: Мужской

Стаж: 4 года 1 месяц

Наличие запрета:

Сообщений: 11661

Откуда: Free-Tor.com

Отдача: не определено

Загрузка: не определено

Нажми

Создавать темы 21-Авг-2019 11:45

[Цитировать]

Информация о фильме- Название: Тайная жизнь домашних животных 2
Оригинальное название: The Secret Life of Pets 2
Год выхода: 2019
Жанр: Мультфильм, комедия, приключения, семейный
Режиссер: Крис Рено, Джонатан дель Валь
В ролях: Пэттон Освальт, Кевин Харт, Харрисон Форд, Эрик Стоунстрит, Дженни Слейт, Тиффани Хэддиш, Лэйк Белл, Дэна Карви, Бобби Мойнахан, Хэннибал Бёресс--О фильме: Почему человек так долго спит утром? Чем вкусно пахнет? Дай мне, дай, дай, дай! Как заставить человека чесать за ушком весь день? Ой, что это? Ааай, опять мой хвост! Где взять еще вкусняшек? О, мячик-мячик-мячик! Узнайте, что действительно беспокоит ваших животных.-Страна: США, Франция, Япония
Студия: Illumination Entertainment, Universal Pictures
Продолжительность: 01:26:04
Перевод: Профессиональный многоголосый | HDRezka Studio-Качество: BDRemux 1080p
Видео: MPEG-4 AVC, 1920x1080, 32.1 Mbit/s, 23.976 fps
Звук:
Аудио #01: 48 kHz, AC3, 2.0, 192 Kbps | HDRezka Studio | RUS |
Аудио #02: 48 kHz, TrueHD, 7.1, 3318 Kbps | Оригинал | ENG |
Аудио #03: 48 kHz, AC3, 5.1, 448 Kbps | Оригинал | ENG |
Субтитры: Русские (Full), английские-

Скриншоты

--
-

MI

-General
Unique ID : 206289921177358004948764008534230210477 (0x9B31FE5F53BACA607C0E896BEEF897AD)
Complete name : D:Video111The.Secret.Life.of.Pets.2.2019.BDREMUX.1080p.seleZen.mkv
Format : Matroska
Format version : Version 4
File size : 21.7 GiB
Duration : 1 h 26 min
Overall bit rate mode : Variable
Overall bit rate : 36.1 Mb/s
Movie name : The Secret Life of Pets 2 2019 from селезень
Encoded date : UTC 2019-08-20 04:37:00
Writing application : mkvmerge v22.0.0 ('At The End Of The World') 64-bit
Writing library : libebml v1.3.5 + libmatroska v1.4.8
Video
ID : 1
Format : AVC
Format/Info : Advanced Video Codec
Format profile : [email protected]
Format settings : CABAC / 4 Ref Frames
Format settings, CABAC : Yes
Format settings, Reference : 4 frames
Codec ID : V_MPEG4/ISO/AVC
Duration : 1 h 26 min
Bit rate mode : Variable
Bit rate : 32.1 Mb/s
Maximum bit rate : 35.0 Mb/s
Width : 1 920 pixels
Height : 1 080 pixels
Display aspect ratio : 16:9
Frame rate mode : Constant
Frame rate : 23.976 (24000/1001) FPS
Color space : YUV
Chroma subsampling : 4:2:0
Bit depth : 8 bits
Scan type : Progressive
Bits/(Pixel*Frame) : 0.645
Stream size : 19.3 GiB (89%)
Language : English
Default : Yes
Forced : No
Audio #1
ID : 2
Format : AC-3
Format/Info : Audio Coding 3
Commercial name : Dolby Digital
Codec ID : A_AC3
Duration : 1 h 26 min
Bit rate mode : Constant
Bit rate : 192 kb/s
Channel(s) : 2 channels
Channel layout : L R
Sampling rate : 48.0 kHz
Frame rate : 31.250 FPS (1536 SPF)
Bit depth : 16 bits
Compression mode : Lossy
Stream size : 118 MiB (1%)
Title : MVO [HDRezka Studio]
Language : Russian
Service kind : Complete Main
Default : Yes
Forced : Yes
Audio #2
ID : 3
Format : MLP FBA 16-ch
Format/Info : Meridian Lossless Packing FBA with 16-channel presentation
Commercial name : Dolby TrueHD with Dolby Atmos
Codec ID : A_TRUEHD
Duration : 1 h 26 min
Bit rate mode : Variable
Bit rate : 3 318 kb/s
Maximum bit rate : 4 644 kb/s
Channel(s) : 8 channels
Channel layout : L R C LFE Ls Rs Lb Rb
Sampling rate : 48.0 kHz
Frame rate : 1 200.000 FPS (40 SPF)
Compression mode : Lossless
Stream size : 1.99 GiB (9%)
Title : Original
Language : English
Default : No
Forced : No
Number of dynamic objects : 11
Bed channel count : 1 channel
Bed channel configuration : LFE
Audio #3
ID : 4
Format : AC-3
Format/Info : Audio Coding 3
Commercial name : Dolby Digital
Codec ID : A_AC3
Duration : 1 h 26 min
Bit rate mode : Constant
Bit rate : 448 kb/s
Channel(s) : 6 channels
Channel layout : L R C LFE Ls Rs
Sampling rate : 48.0 kHz
Frame rate : 31.250 FPS (1536 SPF)
Bit depth : 16 bits
Compression mode : Lossy
Stream size : 276 MiB (1%)
Language : English
Service kind : Complete Main
Default : No
Forced : No
Text #1
ID : 5
Format : UTF-8
Codec ID : S_TEXT/UTF8
Codec ID/Info : UTF-8 Plain Text
Duration : 1 h 25 min
Bit rate : 74 b/s
Count of elements : 1157
Stream size : 46.9 KiB (0%)
Title : Full
Language : Russian
Default : No
Forced : No
Text #2
ID : 6
Format : UTF-8
Codec ID : S_TEXT/UTF8
Codec ID/Info : UTF-8 Plain Text
Duration : 1 h 25 min
Bit rate : 53 b/s
Count of elements : 1324
Stream size : 33.3 KiB (0%)
Title : Full
Language : English
Default : No
Forced : No
Menu
00:00:00.000 : en:Chapter 01
00:05:34.542 : en:Chapter 02
00:10:07.815 : en:Chapter 03
00:13:26.305 : en:Chapter 04
00:16:39.790 : en:Chapter 05
00:19:56.945 : en:Chapter 06
00:24:10.073 : en:Chapter 07
00:28:15.735 : en:Chapter 08
00:30:54.269 : en:Chapter 09
00:35:15.113 : en:Chapter 10
00:39:55.976 : en:Chapter 11
00:45:47.327 : en:Chapter 12
00:49:51.822 : en:Chapter 13
00:56:54.994 : en:Chapter 14
00:58:35.220 : en:Chapter 15
01:02:48.931 : en:Chapter 16
01:07:16.615 : en:Chapter 17
01:12:48.822 : en:Chapter 18
01:15:21.808 : en:Chapter 19
01:18:10.018 : en:Chapter 20-
-Релиз от: -
[Профиль] [ЛС]
Показать сообщения:    
Ответить на тему

Текущее время: 21-Сен 19:20

Часовой пояс: UTC + 4



Вы не можете начинать темы
Вы не можете отвечать на сообщения
Вы не можете редактировать свои сообщения
Вы не можете удалять свои сообщения
Вы не можете голосовать в опросах
Вы не можете прикреплять файлы к сообщениям
Вы можете скачивать файлы
Анализ сайта korsars.info Яндекс.Метрика