Люди Икс: Тёмный Феникс / Dark Phoenix (Саймон Кинберг) [2019, фантастика, боевик, приключения, HDRip-AVC от New-Team | Лицензия]

Ответить на тему
Статистика раздачи [Обновить пиров]
Размер:  1,44 GB   |    Зарегистрирован:  19 дней   |    .torrent скачан:  6 раз
Сидов:  362  [  0 KB/s  ]   Личеров:  12  [  0 KB/s  ]   Подробная статистика пиров
 
   
 
 
Автор Сообщение

4udaki ®

Оффлайн



Пол: Мужской

Стаж: 4 года 10 месяцев

Наличие запрета:

Сообщений: 3724

Откуда: korsars.info

Отдача: 2 Mb/s

Загрузка: 20 Mb/s

Нажми

Создавать темы 01-Сен-2019 20:01

[Цитировать]

Название: Люди Икс: Тёмный Феникс
Оригинальное название: Dark Phoenix
Год выпуска: 2019
Жанр: Фантастика, боевик, приключения
Выпущено: США, Twentieth Century Fox, Bad Hat Harry Productions, Donners' Company
Режиссер: Саймон Кинберг
В ролях: Джеймс МакЭвой, Майкл Фассбендер, Дженнифер Лоуренс, Николас Холт, Софи Тёрнер, Тай Шеридан, Александра Шипп, Эван Питерс, Коди Смит-МакФи, Джессика Честейн
О фильме: История Джин Грей, которая разворачивается в тот момент, когда героиня превращается в культового Тёмного Феникса. Во время опасной для жизни спасательной миссии в космосе девушка оказывается поражена таинственной космической силой, которая превращает её в одного из самых могущественных мутантов. В борьбе с этой всё более изменчивой мощью и со своими собственными демонами Джин выходит из-под контроля: раскалывает семью Людей Икс и угрожает уничтожить всю нашу планету.

Страна: США
Студия: Twentieth Century Fox, Bad Hat Harry Productions, Donners' Company
Продолжительность: 01:53:56
Перевод: дубляж (лицензия)
Файл
Формат: MKV,
Качество: HDRip-AVC
Видео: AVC, 1553 Кбит/сек, 1046x438 (2.40:1), 23,976 кадр/сек
Aудио#1: [RUS] AAC, 256 Кбит/сек, 48 КГц, 5.1
Субтитры: русские (форсированные)
Навигация по главам: есть-

Скриншоты

-

МИ

---[Information] [01.09.2019 17:36:41] x264 [info]: frame I:1278 Avg QP:16.39 size: 46606
---[Information] [01.09.2019 17:36:41] x264 [info]: frame P:37804 Avg QP:18.68 size: 16150
---[Information] [01.09.2019 17:36:41] x264 [info]: frame B:124828 Avg QP:20.59 size: 5267
General
Unique ID : 128926393479672022710545227245710419065 (0x60FE51F779DFC6E444D2A312E7872479)
Complete name : C:tempDark PhoenixDark.Phoenix.2019.HDRip.x264.Rus.stalkerok.New-Team.mkv
Format : Matroska
Format version : Version 4
File size : 1.44 GiB
Duration : 1 h 53 min
Overall bit rate : 1 811 kb/s
Movie name : Dark Phoenix (2019) | Rip by stalkerok
Encoded date : UTC 2019-09-01 15:20:22
Writing application : mkvmerge v33.1.0 ('Primrose') 64-bit
Writing library : libebml v1.3.7 + libmatroska v1.5.0
Video
ID : 1
Format : AVC
Format/Info : Advanced Video Codec
Format profile : [email protected]
Format settings : CABAC / 12 Ref Frames
Format settings, CABAC : Yes
Format settings, Reference frames : 12 frames
Codec ID : V_MPEG4/ISO/AVC
Duration : 1 h 53 min
Bit rate : 1 554 kb/s
Width : 1 046 pixels
Height : 438 pixels
Display aspect ratio : 2.40:1
Frame rate mode : Constant
Frame rate : 23.976 (24000/1001) FPS
Color space : YUV
Chroma subsampling : 4:2:0
Bit depth : 8 bits
Scan type : Progressive
Bits/(Pixel*Frame) : 0.141
Stream size : 1.24 GiB (86%)
Title : Dark Phoenix (2019) | Rip by stalkerok
Writing library : x264 core 158 r2984+49 6932f4a t_mod_New [[email protected] X86_64]
Encoding settings : cabac=1 / ref=12 / deblock=1:-3:-2 / analyse=0x3:0x133 / me=umh / subme=11 / psy=1 / fade_compensate=0.00 / psy_rd=1.00:0.00 / mixed_ref=1 / me_range=32 / chroma_me=1 / trellis=2 / 8x8dct=1 / cqm=0 / deadzone=21,11 / fast_pskip=0 / chroma_qp_offset=-2 / threads=12 / lookahead_threads=3 / sliced_threads=0 / nr=0 / decimate=1 / interlaced=0 / bluray_compat=0 / constrained_intra=0 / fgo=0 / bframes=14 / b_pyramid=2 / b_adapt=2 / b_bias=0 / direct=3 / weightb=1 / open_gop=0 / weightp=2 / keyint=240 / keyint_min=23 / scenecut=40 / intra_refresh=0 / rc_lookahead=60 / rc=crf / mbtree=0 / crf=18.8000 / qcomp=0.65 / qpmin=0:0:0 / qpmax=69:69:69 / qpstep=4 / vbv_maxrate=50000 / vbv_bufsize=62500 / crf_max=0.0 / nal_hrd=none / filler=0 / ip_ratio=1.40 / pb_ratio=1.30 / aq=3:0.80 / aq-sensitivity=10.00 / aq-factor=1.00:1.00:1.00 / aq2=0 / aq3=0 / zones=150989,163909,q=34
Default : Yes
Forced : No
Audio
ID : 2
Format : AAC LC
Format/Info : Advanced Audio Codec Low Complexity
Codec ID : A_AAC-2
Duration : 1 h 53 min
Bit rate : 256 kb/s
Channel(s) : 6 channels
Channel layout : C L R Ls Rs LFE
Sampling rate : 48.0 kHz
Frame rate : 46.875 FPS (1024 SPF)
Compression mode : Lossy
Delay relative to video : 9 ms
Stream size : 208 MiB (14%)
Title : Dub
Language : Russian
Default : Yes
Forced : No
Text
ID : 3
Format : UTF-8
Codec ID : S_TEXT/UTF8
Codec ID/Info : UTF-8 Plain Text
Duration : 1 h 34 min
Bit rate : 0 b/s
Count of elements : 2
Stream size : 108 Bytes (0%)
Title : Forced
Language : Russian
Default : Yes
Forced : No
Menu
00:00:00.000 : :Chapter 01
00:03:28.875 : :Chapter 02
00:07:34.620 : :Chapter 03
00:11:42.201 : :Chapter 04
00:15:44.109 : :Chapter 05
00:18:37.407 : :Chapter 06
00:25:24.481 : :Chapter 07
00:31:40.356 : :Chapter 08
00:34:19.307 : :Chapter 09
00:40:07.446 : :Chapter 10
00:44:36.090 : :Chapter 11
00:49:07.778 : :Chapter 12
00:55:38.168 : :Chapter 13
00:58:57.408 : :Chapter 14
01:02:57.190 : :Chapter 15
01:10:40.110 : :Chapter 16
01:13:42.418 : :Chapter 17
01:19:33.477 : :Chapter 18
01:22:35.700 : :Chapter 19
01:25:49.060 : :Chapter 20
01:30:38.349 : :Chapter 21
01:32:48.187 : :Chapter 22
01:37:59.623 : :Chapter 23
01:45:01.044 : :Chapter 24
-
[korsars.info].t22850.torrent 
Торрент: Зарегистрирован [ 2019-09-01 20:01 ] · 15740CC92ACCDA6D27BC3AD5EA0495ADA75B20A2

Скачать .torrent

Скачать .torrent

16 KB

Статус: проверено
.torrent скачан: 6 раз
Размер: 1,44 GB
Правила
Похожие темы

[Профиль] [ЛС]
Показать сообщения:    
Ответить на тему

Текущее время: 21-Сен 19:18

Часовой пояс: UTC + 4



Вы не можете начинать темы
Вы не можете отвечать на сообщения
Вы не можете редактировать свои сообщения
Вы не можете удалять свои сообщения
Вы не можете голосовать в опросах
Вы не можете прикреплять файлы к сообщениям
Вы можете скачивать файлы
Анализ сайта korsars.info Яндекс.Метрика