Люди Икс: Тёмный Феникс / Dark Phoenix (Саймон Кинберг) [2019, фантастика, боевик, приключения, BDRip 720p от OlLanDGroup | Лицензия]

Ответить на тему
Статистика раздачи [Обновить пиров]
Размер:  7,76 GB   |    Зарегистрирован:  18 дней   |    .torrent скачан:  2 раза
Сидов:  228  [  0 KB/s  ]   Личеров:  37  [  0 KB/s  ]   Подробная статистика пиров
 
   
 
 
Автор Сообщение

Skorp10n ®

Оффлайн

Активный раздающий 1Активный раздающий 2Активный релизер 1000Активный релизер 1500
Активный релизер 2000Активный релизер 250Активный релизер 3000Активный релизер 500Активный релизер 5000Активный релизер Фильмов (1000)Активный релизер Фильмов (300)Активный релизер Фильмов (600)Активный Форумчанин 1Активный Форумчанин 2Активный Форумчанин 3Активный Форумчанин 4Друг трекераКарма 1000Карма 1500Карма 3000Карма 500МеценатНи дня без новостейОрденосец 1 степениОрденосец 2 степениОрденосец 3 степениПочетный орденосецПочетный репортерС Новым 2016 Годом!С Новым 2017 Годом!С Новым 2018 Годом!С Новым 2019 Годом!Супер Мега Контер КвейкТОП-10

Пол: Мужской

Стаж: 4 года 1 месяц

Наличие запрета:

Сообщений: 11660

Откуда: Free-Tor.com

Отдача: не определено

Загрузка: не определено

Нажми

Создавать темы 02-Сен-2019 15:56

[Цитировать]

Информация о фильме- Название: Люди Икс: Тёмный Феникс
Оригинальное название: Dark Phoenix
Год выпуска: 2019
Жанр: Фантастика, боевик, приключения
Выпущено: США, Twentieth Century Fox, Bad Hat Harry Productions, Donners' Company
Режиссер: Саймон Кинберг
В ролях: Джеймс МакЭвой, Майкл Фассбендер, Дженнифер Лоуренс, Николас Холт, Софи Тёрнер, Тай Шеридан, Александра Шипп, Эван Питерс, Коди Смит-МакФи, Джессика Честейн-О фильме: История Джин Грей, которая разворачивается в тот момент, когда героиня превращается в культового Тёмного Феникса. Во время опасной для жизни спасательной миссии в космосе девушка оказывается поражена таинственной космической силой, которая превращает её в одного из самых могущественных мутантов. В борьбе с этой всё более изменчивой мощью и со своими собственными демонами Джин выходит из-под контроля: раскалывает семью Людей Икс и угрожает уничтожить всю нашу планету.--Качество: BDRip (720p)
Видео: MPEG-4 AVC, 6581 Кбит/с, 1280x536, 23.976 кадр/с
Аудио: Русски, (AC3, 6 ch, 448 Кбит/с), (DTS, 6 ch, 768 Кбит/с), украинский (AC3, 6 ch, 448 Кбит/с), английский (DTS, 6 ch, 1509 Кбит/с)
Размер: 7.76 ГБ
Продолжительность: 01:53:56
Перевод: Дублированный
Субтитры: Русские, украинские, английские-Озвучивание - Дублированное (Лицензия)
Сохранены оригинальные чаптеры как на Blu-Ray.-

x264

-x264 [info]: frame I:1330 Avg QP:10.42 size:145046
x264 [info]: frame P:39495 Avg QP:13.22 size: 60533
x264 [info]: frame B:123084 Avg QP:14.18 size: 24606
x264 [info]: consecutive B-frames: 3.9% 6.1% 8.8% 16.6% 17.2% 35.6% 5.9% 1.5% 1.6% 1.4% 1.6%
x264 [info]: mb I I16..4: 22.7% 48.7% 28.6%
x264 [info]: mb P I16..4: 2.7% 29.3% 3.0% P16..4: 18.3% 23.7% 12.5% 3.7% 0.4% skip: 6.5%
x264 [info]: mb B I16..4: 0.5% 6.1% 0.4% B16..8: 27.1% 27.2% 7.7% direct: 9.1% skip:21.9% L0:44.9% L1:38.0% BI:17.1%
x264 [info]: 8x8 transform intra:83.1% inter:39.9%
x264 [info]: direct mvs spatial:97.5% temporal:2.5%
x264 [info]: coded y,uvDC,uvAC intra: 92.5% 95.3% 90.2% inter: 39.3% 40.1% 28.2%
x264 [info]: i16 v,h,dc,p: 29% 7% 21% 43%
x264 [info]: i8 v,h,dc,ddl,ddr,vr,hd,vl,hu: 12% 11% 17% 8% 10% 9% 10% 10% 13%
x264 [info]: i4 v,h,dc,ddl,ddr,vr,hd,vl,hu: 14% 9% 11% 8% 13% 12% 12% 9% 11%
x264 [info]: i8c dc,h,v,p: 58% 15% 13% 14%
x264 [info]: Weighted P-Frames: Y:5.3% UV:3.0%
x264 [info]: ref P L0: 43.7% 9.2% 19.8% 6.8% 6.2% 3.6% 3.7% 2.3% 2.4% 1.8% 0.3% 0.0%
x264 [info]: ref B L0: 68.0% 13.6% 6.5% 4.3% 2.5% 2.2% 1.8% 0.8% 0.3%
x264 [info]: ref B L1: 91.9% 8.1%
x264 [info]: kb/s:6567.48-
-

Инфо-файл

-Общее
Уникальный идентификатор : 183120775384761068903183906783815477620 (0x89C3C74A28200D96B3F12588C6572974)
Полное имя : D:ЗагрузкиDark.Phoenix.2019.x264.BDRip.(720p).OlLanDGroup.mkv
Формат : Matroska
Версия формата : Version 4 / Version 2
Размер файла : 7,76 Гбайт
Продолжительность : 1 ч. 53 м.
Общий поток : 9745 Кбит/сек
Название фильма : Люди Икс: Тёмный Феникс.2019.Rip by: ollan
Дата кодирования : UTC 2019-09-02 05:41:29
Программа кодирования : mkvmerge v6.5.0 ('Isn't she lovely') built on Oct 20 2013 12:50:05
Библиотека кодирования : libebml v1.3.0 + libmatroska v1.4.1
Обложка : Yes
Attachments : Cover - Dark Phoenix.png
Видео
Идентификатор : 1
Формат : AVC
Формат/Информация : Advanced Video Codec
Профиль формата : [email protected]
Настройки формата : CABAC / 10 Ref Frames
Параметр CABAC формата : Да
Параметр ReFrames формата : 10 кадров
Идентификатор кодека : V_MPEG4/ISO/AVC
Продолжительность : 1 ч. 53 м.
Битрейт : 6581 Кбит/сек
Ширина : 1280 пикселей
Высота : 536 пикселей
Соотношение сторон : 2,40:1
Режим частоты кадров : Постоянный
Частота кадров : 23,976 (24000/1001) кадра/сек
Цветовое пространство : YUV
Субдискретизация насыщенности : 4:2:0
Битовая глубина : 8 бит
Тип развёртки : Прогрессивная
Бит/(Пиксели*Кадры) : 0.400
Размер потока : 5,08 Гбайт (65%)
Библиотека кодирования : x264 core 146 r2538 121396c
Настройки программы : cabac=1 / ref=10 / deblock=1:-3:-3 / analyse=0x3:0x133 / me=umh / subme=11 / psy=1 / psy_rd=0.95:0.05 / mixed_ref=1 / me_range=64 / chroma_me=1 / trellis=2 / 8x8dct=1 / cqm=0 / deadzone=21,11 / fast_pskip=0 / chroma_qp_offset=-3 / threads=12 / lookahead_threads=3 / sliced_threads=0 / nr=0 / decimate=0 / interlaced=0 / bluray_compat=0 / constrained_intra=0 / bframes=10 / b_pyramid=2 / b_adapt=2 / b_bias=0 / direct=3 / weightb=1 / open_gop=0 / weightp=2 / keyint=240 / keyint_min=23 / scenecut=40 / intra_refresh=0 / rc_lookahead=40 / rc=2pass / mbtree=0 / bitrate=6581 / ratetol=1.0 / qcomp=0.60 / qpmin=0 / qpmax=69 / qpstep=4 / cplxblur=20.0 / qblur=0.5 / vbv_maxrate=50000 / vbv_bufsize=62500 / nal_hrd=none / filler=0 / ip_ratio=1.40 / pb_ratio=1.30 / aq=1:1.00
Язык : English
Default : Да
Forced : Нет
Аудио #1
Идентификатор : 2
Формат : AC-3
Формат/Информация : Audio Coding 3
Идентификатор кодека : A_AC3
Продолжительность : 1 ч. 53 м.
Вид битрейта : Постоянный
Битрейт : 448 Кбит/сек
Каналы : 6 каналов
Расположение каналов : Front: L C R, Side: L R, LFE
Частота : 48,0 КГц
Частота кадров : 31,250 кадров/сек (1536 SPF)
Битовая глубина : 16 бит
Метод сжатия : С потерями
Размер потока : 365 Мбайт (5%)
Заголовок : License
Язык : Russian
Service kind : Complete Main
Default : Да
Forced : Нет
Аудио #2
Идентификатор : 3
Формат : DTS
Формат/Информация : Digital Theater Systems
Идентификатор кодека : A_DTS
Продолжительность : 1 ч. 53 м.
Вид битрейта : Постоянный
Битрейт : 768 Кбит/сек
Каналы : 6 каналов
Расположение каналов : Front: L C R, Side: L R, LFE
Частота : 48,0 КГц
Частота кадров : 93,750 кадра/сек (512 SPF)
Битовая глубина : 24 бит
Метод сжатия : С потерями
Размер потока : 626 Мбайт (8%)
Заголовок : License
Язык : Russian
Default : Нет
Forced : Нет
Аудио #3
Идентификатор : 4
Формат : AC-3
Формат/Информация : Audio Coding 3
Идентификатор кодека : A_AC3
Продолжительность : 1 ч. 53 м.
Вид битрейта : Постоянный
Битрейт : 448 Кбит/сек
Каналы : 6 каналов
Расположение каналов : Front: L C R, Side: L R, LFE
Частота : 48,0 КГц
Частота кадров : 31,250 кадров/сек (1536 SPF)
Битовая глубина : 16 бит
Метод сжатия : С потерями
Размер потока : 365 Мбайт (5%)
Заголовок : License
Язык : Ukrainian
Service kind : Complete Main
Default : Нет
Forced : Нет
Аудио #4
Идентификатор : 5
Формат : DTS
Формат/Информация : Digital Theater Systems
Идентификатор кодека : A_DTS
Продолжительность : 1 ч. 53 м.
Вид битрейта : Постоянный
Битрейт : 1509 Кбит/сек
Каналы : 6 каналов
Расположение каналов : Front: L C R, Side: L R, LFE
Частота : 48,0 КГц
Частота кадров : 93,750 кадра/сек (512 SPF)
Битовая глубина : 24 бит
Метод сжатия : С потерями
Размер потока : 1,20 Гбайт (15%)
Язык : English
Default : Нет
Forced : Нет
Текст #1
Идентификатор : 6
Формат : UTF-8
Идентификатор кодека : S_TEXT/UTF8
Идентификатор кодека/Информация : UTF-8 Plain Text
Заголовок : Forced
Язык : Russian
Default : Да
Forced : Нет
Текст #2
Идентификатор : 7
Формат : UTF-8
Идентификатор кодека : S_TEXT/UTF8
Идентификатор кодека/Информация : UTF-8 Plain Text
Заголовок : Full
Язык : Russian
Default : Нет
Forced : Нет
Текст #3
Идентификатор : 8
Формат : UTF-8
Идентификатор кодека : S_TEXT/UTF8
Идентификатор кодека/Информация : UTF-8 Plain Text
Заголовок : Full
Язык : Ukrainian
Default : Нет
Forced : Нет
Текст #4
Идентификатор : 9
Формат : UTF-8
Идентификатор кодека : S_TEXT/UTF8
Идентификатор кодека/Информация : UTF-8 Plain Text
Заголовок : Full
Язык : English
Default : Нет
Forced : Нет
Меню
00:00:00.000 : en:Chapter 01
00:03:28.875 : en:Chapter 02
00:07:34.620 : en:Chapter 03
00:11:42.201 : en:Chapter 04
00:15:44.109 : en:Chapter 05
00:18:37.407 : en:Chapter 06
00:25:24.481 : en:Chapter 07
00:31:40.356 : en:Chapter 08
00:34:19.307 : en:Chapter 09
00:40:07.446 : en:Chapter 10
00:44:36.090 : en:Chapter 11
00:49:07.778 : en:Chapter 12
00:55:38.168 : en:Chapter 13
00:58:57.408 : en:Chapter 14
01:02:57.190 : en:Chapter 15
01:10:40.110 : en:Chapter 16
01:13:42.418 : en:Chapter 17
01:19:33.477 : en:Chapter 18
01:22:35.700 : en:Chapter 19
01:25:49.060 : en:Chapter 20
01:30:38.349 : en:Chapter 21
01:32:48.187 : en:Chapter 22
01:37:59.623 : en:Chapter 23
01:45:01.044 : en:Chapter 24-
-

Скриншоты

--
-Релиз от: Rip by: -
[korsars.info].t22853.torrent 
Торрент: Зарегистрирован [ 2019-09-02 15:56 ] · 0E2A8E93FA9F762D81972B85BE2156E2E21004D5

Скачать .torrent

Скачать .torrent

20 KB

Статус: проверено
.torrent скачан: 2 раз
Размер: 7,76 GB
Правила
Похожие темы

[Профиль] [ЛС]
Показать сообщения:    
Ответить на тему

Текущее время: 20-Сен 20:32

Часовой пояс: UTC + 4



Вы не можете начинать темы
Вы не можете отвечать на сообщения
Вы не можете редактировать свои сообщения
Вы не можете удалять свои сообщения
Вы не можете голосовать в опросах
Вы не можете прикреплять файлы к сообщениям
Вы можете скачивать файлы
Анализ сайта korsars.info Яндекс.Метрика