Человек-паук: Вдали от дома / Spider-Man: Far from Home (Джон Уоттс) [2019, фантастика, боевик, приключения, UHD WEB-DL 2160p от селезень | 4K | HDR | HDRezka Studio]

Ответить на тему
Статистика раздачи [Обновить пиров]
Размер:  22,61 GB   |    Зарегистрирован:  29 дней   |    .torrent скачан:  2 раза
Сидов:  117  [  0 KB/s  ]   Личеров:  11  [  0 KB/s  ]   Подробная статистика пиров
 
   
 
 
Автор Сообщение

Skorp10n ®

Оффлайн

Активный раздающий 1Активный раздающий 2Активный релизер 1000Активный релизер 1500
Активный релизер 2000Активный релизер 250Активный релизер 3000Активный релизер 500Активный релизер 5000Активный релизер Фильмов (1000)Активный релизер Фильмов (300)Активный релизер Фильмов (600)Активный Форумчанин 1Активный Форумчанин 2Активный Форумчанин 3Активный Форумчанин 4Друг трекераКарма 1000Карма 1500Карма 3000Карма 500МеценатНи дня без новостейОрденосец 1 степениОрденосец 2 степениОрденосец 3 степениПочетный орденосецПочетный репортерС Новым 2016 Годом!С Новым 2017 Годом!С Новым 2018 Годом!С Новым 2019 Годом!Супер Мега Контер КвейкТОП-10

Пол: Мужской

Стаж: 4 года 2 месяца

Наличие запрета:

Сообщений: 11651

Откуда: korsars.info

Отдача: 2 Mb/s

Загрузка: 20 Mb/s

Нажми

Создавать темы 17-Сен-2019 16:54

[Цитировать]

Информация о фильме- Название: Человек-паук: Вдали от дома
Оригинальное название: Spider-Man: Far from Home
Год выхода: 2019
Жанр: Фантастика, боевик, приключения
Режиссер: Джон Уоттс
В ролях: Том Холланд (II), Зендая Колеман, Энгаури Райс, Джон Фавро, Джейк Джилленхол, Сэмюэл Л. Джексон, Коби Смолдерс, Мариса Томей, Мартин Старр, Нуман Аджар, Джейкоб Баталон, Тони Револори--О фильме: Питер Паркер вместе с друзьями отправляется на летние каникулы в Европу. Однако отдохнуть приятелям вряд ли удастся - Питеру придется согласиться помочь Нику Фьюри раскрыть тайну существ, вызывающих стихийные бедствия и разрушения по всему континенту.-Страна: США
Студия: Columbia Pictures, Marvel Studios, Pascal Pictures
Продолжительность: 02:09:23
Перевод: Профессиональный многоголосый | HDRezka Studio-Качество: WEB-DL 2160p
Видео: 3840x2160 at 23.976 fps, MPEG-H HEVC HDR Video, 24400 kbps avg
Аудио #01: 48 kHz, AC3, 2.0, 192 Kbps | HDRezka Studio | RUS |
Аудио #02: 48 kHz, E-AC3+Atmos, 5.1, 448 Kbps | Оригинал | ENG |
Субтитры: Английские-

Скриншоты

--
-

MI

-General
Unique ID : 9233958955647792927854698405893347664 (0x6F26553874641CECA30C66CBA799950)
Complete name : D:Video111Spider-Man.Far.from.Home.2019.WEB-DL.2160p.HDR.seleZen.mkv
Format : Matroska
Format version : Version 4
File size : 22.6 GiB
Duration : 2 h 9 min
Overall bit rate : 25.0 Mb/s
Movie name : Spider-Man Far from Home 2019 from селезень
Encoded date : UTC 2019-09-17 08:53:17
Writing application : mkvmerge v22.0.0 ('At The End Of The World') 64-bit
Writing library : libebml v1.3.5 + libmatroska v1.4.8
Video
ID : 1
Format : HEVC
Format/Info : High Efficiency Video Coding
Format profile : Main [email protected]@High
HDR format : SMPTE ST 2086, HDR10 compatible
Codec ID : V_MPEGH/ISO/HEVC
Duration : 2 h 9 min
Bit rate : 24.4 Mb/s
Width : 3 840 pixels
Height : 1 608 pixels
Original height : 2 160 pixels
Display aspect ratio : 16:9
Frame rate mode : Constant
Frame rate : 23.976 (24000/1001) FPS
Color space : YUV
Chroma subsampling : 4:2:0 (Type 2)
Bit depth : 10 bits
Bits/(Pixel*Frame) : 0.165
Stream size : 22.0 GiB (97%)
Language : English
Default : Yes
Forced : No
Color range : Limited
Color primaries : BT.2020
Transfer characteristics : PQ
Matrix coefficients : BT.2020 non-constant
Mastering display color pri : Display P3
Mastering display luminance : min: 0.0001 cd/m2, max: 1000 cd/m2
Maximum Content Light Level : 10000 cd/m2
Maximum Frame-Average Light : 595 cd/m2
Audio #1
ID : 2
Format : AC-3
Format/Info : Audio Coding 3
Commercial name : Dolby Digital
Codec ID : A_AC3
Duration : 2 h 9 min
Bit rate mode : Constant
Bit rate : 192 kb/s
Channel(s) : 2 channels
Channel layout : L R
Sampling rate : 48.0 kHz
Frame rate : 31.250 FPS (1536 SPF)
Bit depth : 16 bits
Compression mode : Lossy
Stream size : 178 MiB (1%)
Title : MVO [HDRezka Studio]
Language : Russian
Service kind : Complete Main
Default : Yes
Forced : Yes
Audio #2
ID : 3
Format : E-AC-3 JOC
Format/Info : Enhanced AC-3 with Joint Object Coding
Commercial name : Dolby Digital Plus with Dolby Atmos
Codec ID : A_EAC3
Duration : 2 h 9 min
Bit rate mode : Constant
Bit rate : 448 kb/s
Channel(s) : 6 channels
Channel layout : L R C LFE Ls Rs
Sampling rate : 48.0 kHz
Frame rate : 31.250 FPS (1536 SPF)
Compression mode : Lossy
Stream size : 415 MiB (2%)
Title : Original
Language : English
Service kind : Complete Main
Default : No
Forced : No
Complexity index : 16
Number of dynamic objects : 15
Bed channel count : 1 channel
Bed channel configuration : LFE
Text #1
ID : 4
Format : UTF-8
Codec ID : S_TEXT/UTF8
Codec ID/Info : UTF-8 Plain Text
Duration : 2 h 7 min
Bit rate : 62 b/s
Count of elements : 1749
Stream size : 58.2 KiB (0%)
Title : Full
Language : English
Default : No
Forced : No
Text #2
ID : 5
Format : UTF-8
Codec ID : S_TEXT/UTF8
Codec ID/Info : UTF-8 Plain Text
Duration : 2 h 8 min
Bit rate : 68 b/s
Count of elements : 1929
Stream size : 64.0 KiB (0%)
Title : SDH
Language : English
Default : No
Forced : No
Menu
00:00:00.000 : en:Studio Logo
00:00:33.000 : en:A mysterious cyclone
00:01:47.000 : en:Title Sequence
00:02:24.000 : en:Moving on after The Blip
00:04:11.000 : en:Peter has a plan to woo MJ
00:05:53.000 : en:A benefit for the homeless
00:08:37.000 : en:Big shoes to fill
00:09:34.000 : en:Peter needs a vacation
00:14:51.000 : en:Arriving in Venice
00:18:20.000 : en:Peter finds the perfect gift for MJ
00:19:33.000 : en:A surprise attack on Venice
00:25:18.000 : en:An unexpected visitor
00:30:35.000 : en:The myths of Elementals
00:34:23.000 : en:A hijacked summer vacation
00:39:26.000 : en:A powerful gift from Tony
00:41:56.000 : en:Danger in Prague
00:49:49.000 : en:Fighting the fire Elemental
00:57:09.000 : en:The truth about Quentin Beck
01:04:50.000 : en:Taking advantage of their last night in the city
01:10:30.000 : en:Mysterio puts his plan into action
01:13:42.000 : en:Peter heads to Berlin to warn Fury
01:17:50.000 : en:The power of illusions
01:22:48.000 : en:Peter wakes up in the Netherlands
01:25:39.000 : en:Happy offers Peter some advice
01:29:24.000 : en:Everything converges in London
01:35:08.000 : en:Fighting the illusion from the inside
01:43:34.000 : en:The power of the Peter-tingle
01:49:01.000 : en:Nothing goes according to plan
01:52:16.000 : en:Arriving back home
01:55:33.000 : en:End Credits
01:57:41.000 : en:Title Sequence
01:57:45.000 : en:BONUS: End Credit Scene 1
01:59:23.000 : en:End Credits
02:07:17.000 : en:BONUS: End Credit Scene 2
02:08:56.000 : en:Acknowledgement-
-Релиз от: -
[korsars.info].t22903.torrent 
Торрент: Зарегистрирован [ 2019-09-17 16:54 ] · 32C49A9DE49AFF547D6D1D7BF5053DF06F61DCCD

Скачать .torrent

Скачать .torrent

29 KB

Статус: проверено
.torrent скачан: 2 раз
Размер: 22,61 GB
Правила
4udaki(17-Сен-19)
Похожие темы

[Профиль] [ЛС]
Показать сообщения:    
Ответить на тему

Текущее время: 16-Окт 19:37

Часовой пояс: UTC + 4



Вы не можете начинать темы
Вы не можете отвечать на сообщения
Вы не можете редактировать свои сообщения
Вы не можете удалять свои сообщения
Вы не можете голосовать в опросах
Вы не можете прикреплять файлы к сообщениям
Вы можете скачивать файлы
Анализ сайта korsars.info Яндекс.Метрика