Человек-паук: Вдали от дома / Spider-Man: Far from Home (Джон Уоттс) [2019, фантастика, боевик, приключения, BDRip-AVC от ExKinoRay | iTunes]

Ответить на тему
Статистика раздачи [Обновить пиров]
Размер:  2,63 GB   |    Зарегистрирован:  20 дней   |    .torrent скачан:  2 раза
Сидов:  384  [  0 KB/s  ]   Личеров:  19  [  0 KB/s  ]   Подробная статистика пиров
 
   
 
 
Автор Сообщение

4udaki ®

Онлайн



Пол: Мужской

Стаж: 4 года 11 месяцев

Наличие запрета:

Сообщений: 3801

Откуда: korsars.info

Отдача: 2 Mb/s

Загрузка: 20 Mb/s

Нажми

Создавать темы 26-Сен-2019 12:18

[Цитировать]

Человек-паук: Вдали от дома / Spider-Man: Far from Home-«-»- Год выхода: 2019
Страна: США
Жанр: фантастика, боевик, приключения
Продолжительность: 02:09:23
Перевод: Дублированный | [iTunes]
Субтитры: Русские, английские, украинские-Режиссер: Джон Уоттс
В ролях: Том Холланд, Сэмюэл Л. Джексон, Джейк Джилленхол, Мариса Томей, Джон Фавро, Зендея, Джейкоб Баталон, Тони Револори, Энгаури Райс, Реми Хай-О фильме: Питер Паркер вместе с друзьями отправляется на летние каникулы в Европу. Однако отдохнуть приятелям вряд ли удастся - Питеру придется согласиться помочь Нику Фьюри раскрыть тайну существ, вызывающих стихийные бедствия и разрушения по всему континенту.- -Качество: BDRip-AVC
Формат: MKV
Видео кодек: MPEG-4 AVC
Аудио кодек: AC3
Видео: 1024x428 (2.40:1), 23.976 fps, 1920 Kbps, 0.183 bit/pixel
Аудио RUS: 48 kHz, AC3, 5.1, 384 Kbps
Аудио UKR: 48 kHz, AC3, 2.0, 160 Kbps
Аудио ENG: 48 kHz, AC3, 5.1, 448 Kbps-

Media Info

General
Unique ID : 254621936116115558668822884565046183666 (0xBF8E66B0380E59229558AF2F6B6AC6F2)
Complete name : F:Spider.Man.Far.from.Home.2019.BDRip.AVC.ExKinoRay.mkv
Format : Matroska
Format version : Version 2
File size : 2.63 GiB
Duration : 2 h 9 min
Overall bit rate : 2 915 kb/s
Movie name : Spider Man Far from Home 2019 from ExKinoRay
Encoded date : UTC 2019-09-25 22:11:36
Writing application : mkvmerge v5.6.0 ('Kenya Kane') built on May 27 2012 16:44:04
Writing library : libebml v1.2.3 + libmatroska v1.3.0
Video
ID : 1
Format : AVC
Format/Info : Advanced Video Codec
Format profile : [email protected]
Format settings, CABAC : Yes
Format settings, ReFrames : 12 frames
Codec ID : V_MPEG4/ISO/AVC
Duration : 2 h 9 min
Bit rate : 1 920 kb/s
Width : 1 024 pixels
Height : 428 pixels
Display aspect ratio : 2.40:1
Frame rate mode : Constant
Frame rate : 23.976 (24000/1001) FPS
Color space : YUV
Chroma subsampling : 4:2:0
Bit depth : 8 bits
Scan type : Progressive
Bits/(Pixel*Frame) : 0.183
Stream size : 1.69 GiB (64%)
Title : Enigma
Writing library : x264 core 152 r2851 ba24899
Encoding settings : cabac=1 / ref=12 / deblock=1:-2:-2 / analyse=0x3:0x113 / me=umh / subme=10 / psy=1 / psy_rd=1.03:0.05 / mixed_ref=1 / me_range=32 / chroma_me=1 / trellis=2 / 8x8dct=1 / cqm=0 / deadzone=21,11 / fast_pskip=0 / chroma_qp_offset=-3 / threads=12 / lookahead_threads=3 / sliced_threads=0 / nr=0 / decimate=0 / interlaced=0 / bluray_compat=0 / constrained_intra=0 / bframes=10 / b_pyramid=2 / b_adapt=2 / b_bias=0 / direct=3 / weightb=1 / open_gop=0 / weightp=2 / keyint=240 / keyint_min=23 / scenecut=40 / intra_refresh=0 / rc=2pass / mbtree=0 / bitrate=1920 / ratetol=1.0 / qcomp=0.60 / qpmin=0 / qpmax=51 / qpstep=4 / cplxblur=20.0 / qblur=0.5 / ip_ratio=1.40 / pb_ratio=1.30 / aq=2:0.90
Language : English
Default : Yes
Forced : No
Color range : Limited
Color primaries : BT.709
Transfer characteristics : BT.709
Matrix coefficients : BT.709
Audio #1
ID : 2
Format : AC-3
Format/Info : Audio Coding 3
Mode extension : CM (complete main)
Format settings, Endianness : Big
Codec ID : A_AC3
Duration : 2 h 9 min
Bit rate mode : Constant
Bit rate : 384 kb/s
Channel(s) : 6 channels
Channel positions : Front: L C R, Side: L R, LFE
Sampling rate : 48.0 kHz
Frame rate : 31.250 FPS (1536 spf)
Compression mode : Lossy
Stream size : 355 MiB (13%)
Title : iTunes
Language : Russian
Default : Yes
Forced : No
Audio #2
ID : 3
Format : AC-3
Format/Info : Audio Coding 3
Mode extension : CM (complete main)
Format settings, Endianness : Big
Codec ID : A_AC3
Duration : 2 h 9 min
Bit rate mode : Constant
Bit rate : 160 kb/s
Channel(s) : 2 channels
Channel positions : Front: L R
Sampling rate : 48.0 kHz
Frame rate : 31.250 FPS (1536 spf)
Compression mode : Lossy
Stream size : 148 MiB (5%)
Language : Ukrainian
Default : No
Forced : No
Audio #3
ID : 4
Format : AC-3
Format/Info : Audio Coding 3
Mode extension : CM (complete main)
Format settings, Endianness : Big
Codec ID : A_AC3
Duration : 2 h 9 min
Bit rate mode : Constant
Bit rate : 448 kb/s
Channel(s) : 6 channels
Channel positions : Front: L C R, Side: L R, LFE
Sampling rate : 48.0 kHz
Frame rate : 31.250 FPS (1536 spf)
Compression mode : Lossy
Stream size : 415 MiB (15%)
Title : Original
Language : English
Default : No
Forced : No
Text #1
ID : 5
Format : UTF-8
Codec ID : S_TEXT/UTF8
Codec ID/Info : UTF-8 Plain Text
Title : Forced
Language : Russian
Default : Yes
Forced : No
Text #2
ID : 6
Format : UTF-8
Codec ID : S_TEXT/UTF8
Codec ID/Info : UTF-8 Plain Text
Title : Full
Language : Russian
Default : No
Forced : No
Text #3
ID : 7
Format : UTF-8
Codec ID : S_TEXT/UTF8
Codec ID/Info : UTF-8 Plain Text
Title : Full
Language : Ukrainian
Default : No
Forced : No
Text #4
ID : 8
Format : UTF-8
Codec ID : S_TEXT/UTF8
Codec ID/Info : UTF-8 Plain Text
Title : Full
Language : English
Default : No
Forced : No
Text #5
ID : 9
Format : UTF-8
Codec ID : S_TEXT/UTF8
Codec ID/Info : UTF-8 Plain Text
Title : SDH
Language : English
Default : No
Forced : No
Menu
00:00:00.000 : en:Chapter 01
00:09:35.033 : en:Chapter 02
00:16:06.716 : en:Chapter 03
00:25:18.475 : en:Chapter 04
00:35:26.499 : en:Chapter 05
00:41:57.014 : en:Chapter 06
00:49:50.029 : en:Chapter 07
00:57:09.509 : en:Chapter 08
01:04:50.637 : en:Chapter 09
01:15:57.219 : en:Chapter 10
01:22:49.089 : en:Chapter 11
01:29:25.193 : en:Chapter 12
01:36:43.256 : en:Chapter 13
01:44:47.364 : en:Chapter 14
01:52:17.397 : en:Chapter 15
01:57:45.433 : en:Chapter 16
-

Скриншоты

--
[korsars.info].t22997.torrent 
Торрент: Зарегистрирован [ 2019-09-26 12:18 ] · 6BFEB870E099B0FB3EEE64E8F8C9A869A05EB7D5

Скачать .torrent

Скачать .torrent

14 KB

Статус: проверено
.torrent скачан: 2 раз
Размер: 2,63 GB
Правила
Похожие темы

[Профиль] [ЛС]
Показать сообщения:    
Ответить на тему

Текущее время: 16-Окт 18:19

Часовой пояс: UTC + 4



Вы не можете начинать темы
Вы не можете отвечать на сообщения
Вы не можете редактировать свои сообщения
Вы не можете удалять свои сообщения
Вы не можете голосовать в опросах
Вы не можете прикреплять файлы к сообщениям
Вы можете скачивать файлы
Анализ сайта korsars.info Яндекс.Метрика