Человек-паук: Вдали от дома / Spider-Man: Far from Home (Джон Уоттс) [2019, фантастика, боевик, приключения, UHD BDRemux 2160p от селезень | iTunes, HDRezka Studio]

Ответить на тему
Статистика раздачи [Обновить пиров]
Размер:  52,58 GB   |    Зарегистрирован:  20 дней   |    .torrent скачан:  0 раз
Сидов:  225  [  0 KB/s  ]   Личеров:  67  [  0 KB/s  ]   Подробная статистика пиров
 
   
 
 
Автор Сообщение

4udaki ®

Онлайн



Пол: Мужской

Стаж: 4 года 11 месяцев

Наличие запрета:

Сообщений: 3801

Откуда: korsars.info

Отдача: 2 Mb/s

Загрузка: 20 Mb/s

Нажми

Создавать темы 26-Сен-2019 12:49

[Цитировать]

Человек-паук: Вдали от дома / Spider-Man: Far from Home-«-»- Год выхода: 2019
Страна: США
Жанр: фантастика, боевик, приключения
Продолжительность: 02:09:23
Перевод: Дублированный | [iTunes]
Субтитры: Русские (Forced, 2 x Full), украинские (Full), английские-Режиссер: Джон Уоттс
В ролях: Том Холланд, Сэмюэл Л. Джексон, Джейк Джилленхол, Мариса Томей, Джон Фавро, Зендея, Джейкоб Баталон, Тони Револори, Энгаури Райс, Реми Хай-О фильме: Питер Паркер вместе с друзьями отправляется на летние каникулы в Европу. Однако отдохнуть приятелям вряд ли удастся - Питеру придется согласиться помочь Нику Фьюри раскрыть тайну существ, вызывающих стихийные бедствия и разрушения по всему континенту.- -Качество: BDRemux 2160p
Формат: MKV
Видео кодек: MPEG-H HEVC
Аудио кодек: AC3
Видео: 3840x2160 at 23.976 fps, MPEG-H HEVC HDR Video, 53700 kbps avg
Аудио RUS (iTunes): 48 kHz, AC3, 5.1, 384 Kbps
Аудио RUS (HDRezka Studio): 48 kHz, AC3, 2.0, 192 Kbps
Аудио UKR: 48 kHz, AC3, 2.0, 160 Kbps
Аудио ENG: 48 kHz, TrueHD, 7.1, 3077 Kbps
Аудио ENG: 48 kHz, AC3, 5.1, 640 Kbps-

Media Info

General
Unique ID : 78617782736377369352580731515605651196 (0x3B253BF4181D7A04B3F7FA0F38AC8EFC)
Complete name : D:Video111Spider-Man.Far.from.Home.2019.D.MVO.BDREMUX.2160p.HDR.seleZen.mkv
Format : Matroska
Format version : Version 4
File size : 52.6 GiB
Duration : 2 h 9 min
Overall bit rate mode : Variable
Overall bit rate : 58.2 Mb/s
Movie name : Spider-Man: Far from Home 2019 4K from селезень
Encoded date : UTC 2019-09-25 19:00:38
Writing application : mkvmerge v22.0.0 ('At The End Of The World') 64-bit
Writing library : libebml v1.3.5 + libmatroska v1.4.8
Video
ID : 1
Format : HEVC
Format/Info : High Efficiency Video Coding
Format profile : Main [email protected]@High
HDR format : SMPTE ST 2086, HDR10 compatible
Codec ID : V_MPEGH/ISO/HEVC
Duration : 2 h 9 min
Bit rate : 53.7 Mb/s
Width : 3 840 pixels
Height : 2 160 pixels
Display aspect ratio : 16:9
Frame rate mode : Constant
Frame rate : 23.976 (24000/1001) FPS
Color space : YUV
Chroma subsampling : 4:2:0 (Type 2)
Bit depth : 10 bits
Bits/(Pixel*Frame) : 0.270
Stream size : 48.5 GiB (92%)
Language : English
Default : Yes
Forced : No
Color range : Limited
Color primaries : BT.2020
Transfer characteristics : PQ
Matrix coefficients : BT.2020 non-constant
Mastering display color pri : Display P3
Mastering display luminance : min: 0.0001 cd/m2, max: 1000 cd/m2
Maximum Content Light Level : 9978 cd/m2
Maximum Frame-Average Light : 614 cd/m2
Audio #1
ID : 2
Format : AC-3
Format/Info : Audio Coding 3
Commercial name : Dolby Digital
Codec ID : A_AC3
Duration : 2 h 9 min
Bit rate mode : Constant
Bit rate : 384 kb/s
Channel(s) : 6 channels
Channel layout : L R C LFE Ls Rs
Sampling rate : 48.0 kHz
Frame rate : 31.250 FPS (1536 SPF)
Bit depth : 16 bits
Compression mode : Lossy
Stream size : 355 MiB (1%)
Title : iTunes
Language : Russian
Service kind : Complete Main
Default : Yes
Forced : Yes
Audio #2
ID : 3
Format : AC-3
Format/Info : Audio Coding 3
Commercial name : Dolby Digital
Codec ID : A_AC3
Duration : 2 h 9 min
Bit rate mode : Constant
Bit rate : 192 kb/s
Channel(s) : 2 channels
Channel layout : L R
Sampling rate : 48.0 kHz
Frame rate : 31.250 FPS (1536 SPF)
Bit depth : 16 bits
Compression mode : Lossy
Stream size : 178 MiB (0%)
Title : MVO [HDRezka Studio]
Language : Russian
Service kind : Complete Main
Default : No
Forced : No
Audio #3
ID : 4
Format : AC-3
Format/Info : Audio Coding 3
Commercial name : Dolby Digital
Codec ID : A_AC3
Duration : 2 h 9 min
Bit rate mode : Constant
Bit rate : 160 kb/s
Channel(s) : 2 channels
Channel layout : L R
Sampling rate : 48.0 kHz
Frame rate : 31.250 FPS (1536 SPF)
Bit depth : 16 bits
Compression mode : Lossy
Stream size : 148 MiB (0%)
Title : iTunes
Language : Ukrainian
Service kind : Complete Main
Default : No
Forced : No
Audio #4
ID : 5
Format : MLP FBA 16-ch
Format/Info : Meridian Lossless Packing FBA with 16-channel presentation
Commercial name : Dolby TrueHD with Dolby Atmos
Codec ID : A_TRUEHD
Duration : 2 h 9 min
Bit rate mode : Variable
Bit rate : 3 077 kb/s
Maximum bit rate : 5 397 kb/s
Channel(s) : 8 channels
Channel layout : L R C LFE Ls Rs Lb Rb
Sampling rate : 48.0 kHz
Frame rate : 1 200.000 FPS (40 SPF)
Compression mode : Lossless
Stream size : 2.78 GiB (5%)
Title : Orihinal
Language : English
Default : No
Forced : No
Number of dynamic objects : 11
Bed channel count : 1 channel
Bed channel configuration : LFE
Audio #5
ID : 6
Format : AC-3
Format/Info : Audio Coding 3
Commercial name : Dolby Digital
Codec ID : A_AC3
Duration : 2 h 9 min
Bit rate mode : Constant
Bit rate : 640 kb/s
Channel(s) : 6 channels
Channel layout : L R C LFE Ls Rs
Sampling rate : 48.0 kHz
Frame rate : 31.250 FPS (1536 SPF)
Bit depth : 16 bits
Compression mode : Lossy
Stream size : 592 MiB (1%)
Language : English
Service kind : Complete Main
Default : No
Forced : No
Text #1
ID : 7
Format : UTF-8
Codec ID : S_TEXT/UTF8
Codec ID/Info : UTF-8 Plain Text
Duration : 2 h 8 min
Bit rate : 0 b/s
Count of elements : 13
Stream size : 582 Bytes (0%)
Title : Forced [iTunes]
Language : Russian
Default : Yes
Forced : Yes
Text #2
ID : 8
Format : UTF-8
Codec ID : S_TEXT/UTF8
Codec ID/Info : UTF-8 Plain Text
Duration : 2 h 8 min
Bit rate : 92 b/s
Count of elements : 1666
Stream size : 86.8 KiB (0%)
Title : Full [iTunes]
Language : Russian
Default : No
Forced : No
Text #3
ID : 9
Format : UTF-8
Codec ID : S_TEXT/UTF8
Codec ID/Info : UTF-8 Plain Text
Duration : 2 h 8 min
Bit rate : 92 b/s
Count of elements : 1666
Stream size : 86.8 KiB (0%)
Title : Full [Елена, Лев Вержбицкие]
Language : Russian
Default : No
Forced : No
Text #4
ID : 10
Format : UTF-8
Codec ID : S_TEXT/UTF8
Codec ID/Info : UTF-8 Plain Text
Duration : 2 h 8 min
Bit rate : 94 b/s
Count of elements : 1759
Stream size : 89.3 KiB (0%)
Title : Full [iTunes]
Language : Ukrainian
Default : No
Forced : No
Text #5
ID : 11
Format : UTF-8
Codec ID : S_TEXT/UTF8
Codec ID/Info : UTF-8 Plain Text
Duration : 2 h 7 min
Bit rate : 62 b/s
Count of elements : 1749
Stream size : 58.2 KiB (0%)
Title : Full
Language : English
Default : No
Forced : No
Text #6
ID : 12
Format : UTF-8
Codec ID : S_TEXT/UTF8
Codec ID/Info : UTF-8 Plain Text
Duration : 2 h 8 min
Bit rate : 68 b/s
Count of elements : 1929
Stream size : 64.0 KiB (0%)
Title : SDH
Language : English
Default : No
Forced : No
Menu
00:00:00.000 : en:Chapter 01
00:09:35.033 : en:Chapter 02
00:16:06.716 : en:Chapter 03
00:25:18.475 : en:Chapter 04
00:35:26.499 : en:Chapter 05
00:41:57.014 : en:Chapter 06
00:49:50.029 : en:Chapter 07
00:57:09.509 : en:Chapter 08
01:04:50.637 : en:Chapter 09
01:15:57.219 : en:Chapter 10
01:22:49.089 : en:Chapter 11
01:29:25.193 : en:Chapter 12
01:36:43.256 : en:Chapter 13
01:44:47.364 : en:Chapter 14
01:52:17.397 : en:Chapter 15
01:57:45.433 : en:Chapter 16
-

Скриншоты

--
[korsars.info].t23003.torrent 
Торрент: Зарегистрирован [ 2019-09-26 12:49 ] · 83466E1B7874C907202DF2DA47C2C7E2997D76B0

Скачать .torrent

Скачать .torrent

67 KB

Статус: проверено
.torrent скачан: 0 раз
Размер: 52,58 GB
Правила
Похожие темы

[Профиль] [ЛС]

Создавать темы 26-Сен-2019 12:50 (спустя 24 секунды)

Топик был перенесен из форума Зарубежные фильмы в высоком качестве в форум
Причина переноса: Правильный форум
4udaki
 
Показать сообщения:    
Ответить на тему

Текущее время: 16-Окт 18:20

Часовой пояс: UTC + 4



Вы не можете начинать темы
Вы не можете отвечать на сообщения
Вы не можете редактировать свои сообщения
Вы не можете удалять свои сообщения
Вы не можете голосовать в опросах
Вы не можете прикреплять файлы к сообщениям
Вы можете скачивать файлы
Анализ сайта korsars.info Яндекс.Метрика