Человек-паук: Вдали от дома / Spider-Man: Far from Home (Джон Уоттс) [2019, фантастика, боевик, приключения, BDRip-HEVC 1080p | iTunes]

Ответить на тему
Статистика раздачи [Обновить пиров]
Размер:  5,68 GB   |    Зарегистрирован:  20 дней   |    .torrent скачан:  1 раз
Сидов:  486  [  0 KB/s  ]   Личеров:  34  [  0 KB/s  ]   Подробная статистика пиров
 
   
 
 
Автор Сообщение

4udaki ®

Оффлайн



Пол: Мужской

Стаж: 4 года 11 месяцев

Наличие запрета:

Сообщений: 3801

Откуда: korsars.info

Отдача: 2 Mb/s

Загрузка: 20 Mb/s

Нажми

Создавать темы 26-Сен-2019 13:00

[Цитировать]

Человек-паук: Вдали от дома / Spider-Man: Far from Home-«-»- Год выхода: 2019
Страна: США
Жанр: фантастика, боевик, приключения
Продолжительность: 02:09:23
Перевод: Дублированный | [iTunes]
Субтитры: Русские, английские-Режиссер: Джон Уоттс
В ролях: Том Холланд, Сэмюэл Л. Джексон, Джейк Джилленхол, Мариса Томей, Джон Фавро, Зендея, Джейкоб Баталон, Тони Револори, Энгаури Райс, Реми Хай-О фильме: Питер Паркер вместе с друзьями отправляется на летние каникулы в Европу. Однако отдохнуть приятелям вряд ли удастся - Питеру придется согласиться помочь Нику Фьюри раскрыть тайну существ, вызывающих стихийные бедствия и разрушения по всему континенту.- -Качество: BDRip-HEVC 1080p
Формат: MKV
Видео кодек: MPEG-4 HEVC
Аудио кодек: AC3
Видео: HEVC/H.265, 1920x804, ~5451 Kbps, 10 bit
Аудио RUS: AC3, 6 ch, 384 Kbps
Аудио ENG: AC3, 6 ch, 448 Kbps-

Media Info

x265 info: frame I: 2217, Avg QP:16.28 kb/s: 21741.91
x265 info: frame P: 42921, Avg QP:18.09 kb/s: 11088.45
x265 info: frame B: 141005, Avg QP:20.68 kb/s: 3477.40
x265 info: Weighted P-Frames: Y:5.3% UV:4.2%
x265 info: consecutive B-frames: 12.3% 7.3% 7.4% 45.4% 6.6% 9.8% 1.7% 8.7% 0.2% 0.4% 0.0% 0.2% 0.0%
x265 info: encoded 186143 frames in 180386.49s (1.03 fps), 5449.90 kb/s, Avg QP:20.03
Формат : Matroska
Версия формата : Version 4
Размер файла : 5,68 Гбайт
Продолжительность : 2 ч. 9 м.
Общий поток : 6285 Кбит/сек
Название фильма : Человек-паук: Вдали от дома (2019) [email protected]
Дата кодирования : UTC 2019-09-26 02:10:46
Программа кодирования : mkvmerge v30.1.0 ('Forever And More') 64-bit
Библиотека кодирования : libebml v1.3.6 + libmatroska v1.4.9
Обложка : Yes
Attachments : cover.jpg
Видео
Идентификатор : 1
Формат : HEVC
Формат/Информация : High Efficiency Video Coding
Профиль формата : Main [email protected]@High
Идентификатор кодека : V_MPEGH/ISO/HEVC
Продолжительность : 2 ч. 9 м.
Битрейт : 5451 Кбит/сек
Ширина : 1920 пикселей
Высота : 804 пикселя
Соотношение сторон : 2,40:1
Режим частоты кадров : Постоянный
Частота кадров : 23,976 (24000/1001) кадра/сек
Цветовое пространство : YUV
Субдискретизация насыщенности : 4:2:0
Битовая глубина : 10 бит
Бит/(Пиксели*Кадры) : 0.147
Размер потока : 4,93 Гбайт (87%)
Библиотека кодирования : x265 3.1+11-de920e0a3183:[Windows][clang 8.0.1][64 bit] 10bit
Настройки программы : cpuid=1049583 / frame-threads=5 / numa-pools=4 / wpp / no-pmode / no-pme / no-psnr / no-ssim / log-level=3 / input-csp=1 / input-res=1920x804 / interlace=0 / total-frames=0 / level-idc=41 / high-tier=1 / uhd-bd=0 / ref=5 / allow-non-conformance / no-repeat-headers / annexb / no-aud / no-hrd / info / hash=0 / no-temporal-layers / open-gop / min-keyint=24 / keyint=240 / gop-lookahead=0 / bframes=12 / b-adapt=2 / b-pyramid / bframe-bias=0 / rc-lookahead=40 / lookahead-slices=5 / scenecut=40 / radl=0 / no-splice / no-intra-refresh / ctu=32 / min-cu-size=8 / rect / amp / max-tu-size=32 / tu-inter-depth=4 / tu-intra-depth=4 / limit-tu=1 / rdoq-level=1 / dynamic-rd=0.00 / no-ssim-rd / signhide / no-tskip / nr-intra=0 / nr-inter=0 / no-constrained-intra / no-strong-intra-smoothing / max-merge=5 / limit-refs=1 / no-limit-modes / me=3 / subme=7 / merange=57 / temporal-mvp / no-hme / weightp / no-weightb / no-analyze-src-pics / deblock=-3:-3 / no-sao / no-sao-non-deblock / rd=3 / early-skip / no-rskip / no-fast-intra / no-tskip-fast / no-cu-lossless / b-intra / no-splitrd-skip / rdpenalty=0 / psy-rd=2.00 / psy-rdoq=1.00 / no-rd-refine / no-lossless / cbqpoffs=0 / crqpoffs=0 / rc=crf / crf=20.0 / qcomp=0.60 / qpstep=4 / stats-write=0 / stats-read=0 / vbv-maxrate=50000 / vbv-bufsize=50000 / vbv-init=0.9 / crf-max=0.0 / crf-min=0.0 / ipratio=1.40 / pbratio=1.30 / aq-mode=3 / aq-strength=1.00 / no-cutree / zone-count=0 / no-strict-cbr / qg-size=32 / no-rc-grain / qpmax=69 / qpmin=0 / no-const-vbv / sar=1 / overscan=0 / videoformat=5 / range=0 / colorprim=2 / transfer=2 / colormatrix=2 / chromaloc=0 / display-window=0cll=0,0 / min-luma=0 / max-luma=1023 / log2-max-poc-lsb=8 / vui-timing-info / vui-hrd-info / slices=1 / no-opt-qp-pps / no-opt-ref-list-length-pps / no-multi-pass-opt-rps / scenecut-bias=0.05 / no-opt-cu-delta-qp / no-aq-motion / no-hdr / no-hdr-opt / no-dhdr10-opt / no-idr-recovery-sei / analysis-reuse-level=5 / scale-factor=0 / refine-intra=0 / refine-inter=0 / refine-mv=0 / refine-ctu-distortion=0 / no-limit-sao / ctu-info=0 / no-lowpass-dct / refine-analysis-type=0 / copy-pic=1 / max-ausize-factor=1.0 / no-dynamic-refine / no-single-sei / no-hevc-aq / no-svt / no-field / qp-adaptation-range=1.00
Язык : English
Default : Да
Forced : Нет
Цветовой диапазон : Limited
Аудио #1
Идентификатор : 2
Формат : AC-3
Формат/Информация : Audio Coding 3
Коммерческое название : Dolby Digital
Идентификатор кодека : A_AC3
Продолжительность : 2 ч. 9 м.
Вид битрейта : Постоянный
Битрейт : 384 Кбит/сек
Каналы : 6 каналов
ChannelLayout : L R C LFE Ls Rs
Частота : 48,0 КГц
Частота кадров : 31,250 кадров/сек (1536 SPF)
Битовая глубина : 16 бит
Метод сжатия : С потерями
Размер потока : 355 Мбайт (6%)
Заголовок : iTunes
Язык : Russian
Default : Да
Forced : Нет
Аудио #2
Идентификатор : 3
Формат : AC-3
Формат/Информация : Audio Coding 3
Коммерческое название : Dolby Digital
Идентификатор кодека : A_AC3
Продолжительность : 2 ч. 9 м.
Вид битрейта : Постоянный
Битрейт : 448 Кбит/сек
Каналы : 6 каналов
ChannelLayout : L R C LFE Ls Rs
Частота : 48,0 КГц
Частота кадров : 31,250 кадров/сек (1536 SPF)
Битовая глубина : 16 бит
Метод сжатия : С потерями
Размер потока : 415 Мбайт (7%)
Заголовок : Original
Язык : English
Default : Нет
Forced : Нет
Текст #1
Идентификатор : 4
Формат : UTF-8
Идентификатор кодека : S_TEXT/UTF8
Идентификатор кодека/Информация : UTF-8 Plain Text
Продолжительность : 2 ч. 8 м.
Битрейт : 0 бит/сек
ElementCount : 13
Размер потока : 582 байт (0%)
Заголовок : Forced
Язык : Russian
Default : Да
Forced : Да
Текст #2
Идентификатор : 5
Формат : UTF-8
Идентификатор кодека : S_TEXT/UTF8
Идентификатор кодека/Информация : UTF-8 Plain Text
Продолжительность : 2 ч. 8 м.
Битрейт : 92 бит/сек
ElementCount : 1666
Размер потока : 86,8 Кбайт (0%)
Заголовок : Full
Язык : Russian
Default : Нет
Forced : Нет
Текст #3
Идентификатор : 6
Формат : UTF-8
Идентификатор кодека : S_TEXT/UTF8
Идентификатор кодека/Информация : UTF-8 Plain Text
Продолжительность : 2 ч. 7 м.
Битрейт : 62 бит/сек
ElementCount : 1749
Размер потока : 58,2 Кбайт (0%)
Заголовок : Full
Язык : English
Default : Нет
Forced : Нет
Меню
00:00:00.000 : :Chapter 01
00:09:35.033 : :Chapter 02
00:16:06.716 : :Chapter 03
00:25:18.475 : :Chapter 04
00:35:26.498 : :Chapter 05
00:41:57.014 : :Chapter 06
00:49:50.029 : :Chapter 07
00:57:09.509 : :Chapter 08
01:04:50.637 : :Chapter 09
01:15:57.219 : :Chapter 10
01:22:49.089 : :Chapter 11
01:29:25.193 : :Chapter 12
01:36:43.256 : :Chapter 13
01:44:47.364 : :Chapter 14
01:52:17.397 : :Chapter 15
01:57:45.433 : :Chapter 16
-

Скриншоты

--
[korsars.info].t23006.torrent 
Торрент: Зарегистрирован [ 2019-09-26 13:00 ] · 7F3C4267D7F23D2A345855D433D501EF8BC92D33

Скачать .torrent

Скачать .torrent

15 KB

Статус: проверено
.torrent скачан: 1 раз
Размер: 5,68 GB
Правила
Похожие темы

[Профиль] [ЛС]
Показать сообщения:    
Ответить на тему

Текущее время: 16-Окт 19:02

Часовой пояс: UTC + 4



Вы не можете начинать темы
Вы не можете отвечать на сообщения
Вы не можете редактировать свои сообщения
Вы не можете удалять свои сообщения
Вы не можете голосовать в опросах
Вы не можете прикреплять файлы к сообщениям
Вы можете скачивать файлы
Анализ сайта korsars.info Яндекс.Метрика