Али, рули! / Stuber (Майкл Даус) [2019, боевик, триллер, комедия, криминал, UHD BDRemux 2160p от селезень | 4K | HDR | iTunes]

Ответить на тему
Статистика раздачи [Обновить пиров]
Размер:  46,64 GB   |    Зарегистрирован:  8 дней   |    .torrent скачан:  1 раз
Сидов:  241  [  0 KB/s  ]   Личеров:  45  [  0 KB/s  ]   Подробная статистика пиров
 
   
 
 
Автор Сообщение

4udaki ®

Онлайн



Пол: Мужской

Стаж: 4 года 11 месяцев

Наличие запрета:

Сообщений: 3801

Откуда: korsars.info

Отдача: 2 Mb/s

Загрузка: 20 Mb/s

Нажми

Создавать темы 08-Окт-2019 09:40

[Цитировать]

-Али, рули! / Stuber-Год выпуска: 2019
Страна:
США
Жанр: боевик, триллер, комедия, криминал
Продолжительность: 01:33:24
Перевод: Дублированный | [iTunes]
Субтитры: Русские (Forced, full), украинские (Forced), английские-В ролях: Кумэйл Нанджиани, Дэйв Батиста, Мира Сорвино, Натали Моралес, Ико Уайс, Бетти Гилпин, Карен Гиллан, Джимми Татро, Стив Хоуи, Рене Моран
Режиссёр: Майкл Даус-Рейтинг:
-Описание: Скромный водитель Uber по имени Стю подбирает пассажира, который оказывается полицейским, идущим по следу жестокого убийцы. Таксист даже представить не мог, что теперь его ждет мучительное испытание, в ходе которого он будет отчаянно пытаться сохранить здравомыслие, жизнь и пятизвездочный рейтинг в приложении.-Качество: BDRemux 2160p
Формат: MKV (MPEG-H HEVC HDR Video)
Видео: 3840x2160 at 23.976 fps, MPEG-H HEVC HDR Video, 66300 kbps avg
Аудио #1 (RUS): 48 kHz, AC3, 5.1, 384 Kbps
Аудио #1 (UKR): 48 kHz, AC3, 2.0, 160 Kbps
Аудио #1 (ENG): 48 kHz, TrueHD, 7.1, 3937 Kbps
Аудио #1 (ENG): 8 kHz, AC3, 5.1, 640 Kbps-

Скриншоты

-

Media Info

General
Unique ID : 250229701883853239414357730727135133226 (0xBC407CD242AF39C85CE20257EC39BE2A)
Complete name : D:Video111Stuber.2019.BDREMUX.2160p.HDR.seleZen.mkv
Format : Matroska
Format version : Version 4
File size : 46.6 GiB
Duration : 1 h 33 min
Overall bit rate mode : Variable
Overall bit rate : 71.5 Mb/s
Movie name : Stuber 2019 4K from селезень
Encoded date : UTC 2019-10-05 14:56:44
Writing application : mkvmerge v22.0.0 ('At The End Of The World') 64-bit
Writing library : libebml v1.3.5 + libmatroska v1.4.8
Video
ID : 1
Format : HEVC
Format/Info : High Efficiency Video Coding
Format profile : Main [email protected]@High
HDR format : SMPTE ST 2094 App 4, Version 1, HDR10+ Profile A compatible
Codec ID : V_MPEGH/ISO/HEVC
Duration : 1 h 33 min
Bit rate : 66.3 Mb/s
Width : 3 840 pixels
Height : 2 160 pixels
Display aspect ratio : 16:9
Frame rate mode : Constant
Frame rate : 23.976 (24000/1001) FPS
Color space : YUV
Chroma subsampling : 4:2:0 (Type 2)
Bit depth : 10 bits
Bits/(Pixel*Frame) : 0.333
Stream size : 43.2 GiB (93%)
Language : English
Default : Yes
Forced : No
Color range : Limited
Color primaries : BT.2020
Transfer characteristics : PQ
Matrix coefficients : BT.2020 non-constant
Mastering display color pri : Display P3
Mastering display luminance : min: 0.0050 cd/m2, max: 1000 cd/m2
Audio #1
ID : 2
Format : AC-3
Format/Info : Audio Coding 3
Commercial name : Dolby Digital
Codec ID : A_AC3
Duration : 1 h 33 min
Bit rate mode : Constant
Bit rate : 384 kb/s
Channel(s) : 6 channels
Channel layout : L R C LFE Ls Rs
Sampling rate : 48.0 kHz
Frame rate : 31.250 FPS (1536 SPF)
Bit depth : 16 bits
Compression mode : Lossy
Stream size : 256 MiB (1%)
Title : iTunes
Language : Russian
Service kind : Complete Main
Default : Yes
Forced : Yes
Audio #2
ID : 3
Format : AC-3
Format/Info : Audio Coding 3
Commercial name : Dolby Digital
Codec ID : A_AC3
Duration : 1 h 33 min
Bit rate mode : Constant
Bit rate : 160 kb/s
Channel(s) : 2 channels
Channel layout : L R
Sampling rate : 48.0 kHz
Frame rate : 31.250 FPS (1536 SPF)
Bit depth : 16 bits
Compression mode : Lossy
Stream size : 107 MiB (0%)
Title : iTunes
Language : Ukrainian
Service kind : Complete Main
Default : No
Forced : No
Audio #3
ID : 4
Format : MLP FBA 16-ch
Format/Info : Meridian Lossless Packing FBA with 16-channel presentation
Commercial name : Dolby TrueHD with Dolby Atmos
Codec ID : A_TRUEHD
Duration : 1 h 33 min
Bit rate mode : Variable
Bit rate : 3 937 kb/s
Maximum bit rate : 6 696 kb/s
Channel(s) : 8 channels
Channel layout : L R C LFE Ls Rs Lb Rb
Sampling rate : 48.0 kHz
Frame rate : 1 200.000 FPS (40 SPF)
Compression mode : Lossless
Stream size : 2.57 GiB (6%)
Title : Original
Language : English
Default : No
Forced : No
Number of dynamic objects : 13
Bed channel count : 1 channel
Bed channel configuration : LFE
Audio #4
ID : 5
Format : AC-3
Format/Info : Audio Coding 3
Commercial name : Dolby Digital
Codec ID : A_AC3
Duration : 1 h 33 min
Bit rate mode : Constant
Bit rate : 640 kb/s
Channel(s) : 6 channels
Channel layout : L R C LFE Ls Rs
Sampling rate : 48.0 kHz
Frame rate : 31.250 FPS (1536 SPF)
Bit depth : 16 bits
Compression mode : Lossy
Stream size : 428 MiB (1%)
Language : English
Service kind : Complete Main
Default : No
Forced : No
Text #1
ID : 6
Format : UTF-8
Codec ID : S_TEXT/UTF8
Codec ID/Info : UTF-8 Plain Text
Duration : 1 h 27 min
Bit rate : 1 b/s
Count of elements : 24
Stream size : 876 Bytes (0%)
Title : Forced
Language : Russian
Default : Yes
Forced : Yes
Text #2
ID : 7
Format : UTF-8
Codec ID : S_TEXT/UTF8
Codec ID/Info : UTF-8 Plain Text
Duration : 1 h 32 min
Bit rate : 114 b/s
Count of elements : 1819
Stream size : 77.4 KiB (0%)
Title : Full
Language : Russian
Default : No
Forced : No
Text #3
ID : 8
Format : UTF-8
Codec ID : S_TEXT/UTF8
Codec ID/Info : UTF-8 Plain Text
Duration : 1 h 27 min
Bit rate : 1 b/s
Count of elements : 20
Stream size : 725 Bytes (0%)
Title : Forced
Language : Ukrainian
Default : No
Forced : No
Text #4
ID : 9
Format : UTF-8
Codec ID : S_TEXT/UTF8
Codec ID/Info : UTF-8 Plain Text
Duration : 1 h 26 min
Bit rate : 83 b/s
Count of elements : 1795
Stream size : 52.9 KiB (0%)
Title : Full
Language : English
Default : No
Forced : No
Menu
00:00:00.000 : en:Chapter 01
00:05:52.435 : en:Chapter 02
00:09:57.222 : en:Chapter 03
00:14:14.854 : en:Chapter 04
00:17:30.675 : en:Chapter 05
00:19:46.310 : en:Chapter 06
00:22:40.276 : en:Chapter 07
00:27:33.402 : en:Chapter 08
00:31:30.889 : en:Chapter 09
00:33:19.247 : en:Chapter 10
00:35:39.888 : en:Chapter 11
00:40:13.036 : en:Chapter 12
00:45:05.202 : en:Chapter 13
00:49:10.114 : en:Chapter 14
00:52:36.987 : en:Chapter 15
00:56:46.111 : en:Chapter 16
01:01:54.252 : en:Chapter 17
01:05:43.648 : en:Chapter 18
01:08:37.196 : en:Chapter 19
01:13:31.157 : en:Chapter 20
01:16:44.517 : en:Chapter 21
01:19:07.534 : en:Chapter 22
01:23:54.780 : en:Chapter 23
01:27:49.598 : en:Chapter 24
-
[korsars.info].t23031.torrent 
Торрент: Зарегистрирован [ 2019-10-08 09:40 ] · 89BAA3106EDD663EBC75AF913C69375F7307B44F

Скачать .torrent

Скачать .torrent

59 KB

Статус: проверено
.torrent скачан: 1 раз
Размер: 46,64 GB
Правила
Похожие темы

[Профиль] [ЛС]
Показать сообщения:    
Ответить на тему

Текущее время: 16-Окт 19:38

Часовой пояс: UTC + 4



Вы не можете начинать темы
Вы не можете отвечать на сообщения
Вы не можете редактировать свои сообщения
Вы не можете удалять свои сообщения
Вы не можете голосовать в опросах
Вы не можете прикреплять файлы к сообщениям
Вы можете скачивать файлы
Анализ сайта korsars.info Яндекс.Метрика