Настоящая любовь / True Romance (1993) BDRip 1080p | P, P2, A | Режиссерская версия

Ответить на тему
Статистика раздачи [Обновить пиров]
Размер:  16,61 GB   |    Зарегистрирован:  24 дня   |    .torrent скачан:  1 раз
Сидов:  6  [  0 KB/s  ]   Личеров:  4  [  0 KB/s  ]   Подробная статистика пиров
 
   
 
 
Автор Сообщение

4udaki ®

Оффлайн



Пол: Мужской

Стаж: 5 лет 1 месяц

Наличие запрета:

Сообщений: 4738

Откуда: korsars.info

Отдача: 2 Mb/s

Загрузка: 20 Mb/s

Нажми

Создавать темы 17-Ноя-2019 13:00

[Цитировать]

Настоящая любовь
True Romance
«Stealing, Cheating, Killing. Who said romance is dead?»
Год выпуска: 1993
Страна: США, Франция
Студия: Warner Brothers Pictures, Canal+, Alcor Films, Regency Enterprises
Жанр: Криминал, драма, триллер
Продолжительность: 02:00:30
Перевод: Профессиональный (многоголосый закадровый), профессиональный (двухголосый закадровый), авторский
Режиссер: Тони Скотт / Tony Scott
В ролях: Кристиан Слэйтер, Патриция Аркетт, Майкл Рапапорт, Джеймс Гандольфини, Бронсон Пиншо, Деннис Хоппер, Кристофер Уокен, Сол Рубинек, Гари Олдман, Крис Пенн
Описание: Кларенс Уорли и Алабама Уитмэн познакомились и провели вместе ночь. Алабама призналась, что она делает первые шаги на трудном поприще «call-girl», то есть «девушки по вызову». Кларенс Уорли не был суперменом, однако, «навестив» сутенера Алабамы, оставил после себя два трупа - сутенера и его телохранителя...

Кодек: H264
Качество: BDRip 1080p
Видео: MPEG-4 AVC, 1920x820, 13000 Mбит/с, 23.976 fps
Аудио 1: Русский, AC3, 6 ch, 448 Кбит/с Профессиональный (многоголосый закадровый) R5 (Twister)
Аудио 2: Русский, AC3, 6 ch, 512 Кбит/с Профессиональный (многоголосый закадровый) Киномания
Аудио 3: Русский, AC3, 2 ch, 224 Кбит/с Профессиональный (многоголосый закадровый) ДТВ
Аудио 4: Русский, AC3, 2 ch, 224 Кбит/с Профессиональный (многоголосый закадровый) Петербург 5 канал
Аудио 5: Русский, AC3, 2 ch, 224 Кбит/с Профессиональный (многоголосый закадровый) ТВЦ
Аудио 6: Русский, AC3, 2 ch, 224 Кбит/с Профессиональный (двухголосый закадровый) Тивионика
Аудио 7: Русский, АС3, 6 ch, 640 Кбит/с Профессиональный (двухголосый закадровый) П. Гланц и И. Королёва
Аудио 8: Русский, АС3, 6 ch, 640 Кбит/с Авторский (одноголосый, закадровый) А. Гаврилов
Аудио 9: Русский, АС3, 6 ch, 640 Кбит/с Авторский (одноголосый, закадровый) В. Ю. Живов
Аудио 10: Русский, АС3, 6 ch, 640 Кбит/с Авторский (одноголосый, закадровый) М. Чадов ненорматив
Аудио 11: Русский, АС3, 6 ch, 448 Кбит/с Авторский (одноголосый, закадровый) М. Чадов v.1
Аудио 12: Русский, АС3, 2 ch, 224 Кбит/с Авторский (одноголосый, закадровый)
Аудио 13: Украинский, АС3, 2 ch, 224 Кбит/с Профессиональный (двухголосый закадровый) НТН
Аудио 14: Английский, АС3, 6 ch, 640 Кбит/с Оригинал
Аудио 15: Русский, АС3, 2 ch, 192 Кбит/с Commentary by Tony Scott
Аудио 16: Английский, АС3, 2 ch, 192 Кбит/с Commentary by Tony Scott
Аудио 17: Английский, АС3, 2 ch, 192 Кбит/с Commentary by Quentin Tarantino
Аудио 18: Английский, АС3, 2 ch, 192 Кбит/с Commentary by Christian Slater and Patricia Arquette
Субтитры: Русские, английские
Главы: Есть
Доп. Исходник благодарю pirs18

Скриншоты

MediaInfo:

x264 [info]: frame I:1057 Avg QP:16.53 size:194175
x264 [info]: frame P:39520 Avg QP:18.43 size:109944
x264 [info]: frame B:132775 Avg QP:20.44 size: 54222
Общее
Уникальный идентификатор : 170849480571112603221955015717736986092 (0x808869BE65DB860DBF8743B90ED4B5EC)
Полное имя : J:фильмыНастоящая любовь 1993г. BDRip 1080p.mkv
Формат : Matroska
Версия формата : Version 2
Размер файла : 16,6 Гбайт
Продолжительность : 2 ч. 0 м.
Общий поток : 19,7 Мбит/сек
Название фильма : Настоящая любовь 1993г. от mister.hats
Дата кодирования : UTC 2019-10-22 10:50:18
Программа кодирования : mkvmerge v5.8.0 ('No Sleep / Pillow') built on Sep 2 2012 15:37:04
Библиотека кодирования : libebml v1.2.3 + libmatroska v1.3.0
Видео
Идентификатор : 1
Формат : AVC
Формат/Информация : Advanced Video Codec
Профиль формата : [email protected]
Настройки формата : CABAC / 5 Ref Frames
Параметр CABAC формата : Да
Параметр RefFrames формата : 5 кадров
Идентификатор кодека : V_MPEG4/ISO/AVC
Продолжительность : 2 ч. 0 м.
Битрейт : 13,0 Мбит/сек
Ширина : 1920 пикселей
Высота : 820 пикселей
Соотношение сторон : 2,35:1
Режим частоты кадров : Постоянный
Частота кадров : 23,976 (24000/1001) кадра/сек
Цветовое пространство : YUV
Субдискретизация насыщенности : 4:2:0
Битовая глубина : 8 бит
Тип развёртки : Прогрессивная
Бит/(Пиксели*Кадры) : 0.344
Размер потока : 10,6 Гбайт (64%)
Библиотека кодирования : x264 core 152 r2851kMod ba24899
Настройки программы : cabac=1 / ref=5 / deblock=1:-3:-3 / analyse=0x3:0x113 / me=umh / subme=11 / psy=1 / fade_compensate=0.00 / psy_rd=0.99:0.00 / mixed_ref=1 / me_range=48 / chroma_me=1 / trellis=2 / 8x8dct=1 / cqm=0 / deadzone=21,11 / fast_pskip=0 / chroma_qp_offset=-2 / threads=12 / lookahead_threads=3 / sliced_threads=0 / nr=0 / decimate=0 / interlaced=0 / bluray_compat=0 / constrained_intra=0 / bframes=10 / b_pyramid=2 / b_adapt=2 / b_bias=0 / direct=3 / weightb=1 / open_gop=0 / weightp=2 / keyint=240 / keyint_min=23 / scenecut=40 / intra_refresh=0 / rc_lookahead=40 / rc=2pass / mbtree=0 / bitrate=13000 / ratetol=1.0 / qcomp=0.60 / qpmin=0 / qpmax=39 / qpstep=4 / cplxblur=20.0 / qblur=0.5 / vbv_maxrate=50000 / vbv_bufsize=62500 / nal_hrd=none / filler=0 / ip_ratio=1.25 / pb_ratio=1.30 / aq=2:0.70
Язык : English
Default : Да
Forced : Нет
Цветовой диапазон : Limited
Основные цвета : BT.709
Характеристики трансфера : BT.709
Коэффициенты матрицы : BT.709
Аудио #1
Идентификатор : 2
Формат : AC-3
Формат/Информация : Audio Coding 3
Параметр Endianness формата : Big
Идентификатор кодека : A_AC3
Продолжительность : 2 ч. 0 м.
Вид битрейта : Постоянный
Битрейт : 448 Кбит/сек
Каналы : 6 каналов
Расположение каналов : Front: L C R, Side: L R, LFE
Частота : 48,0 КГц
Частота кадров : 31,250 кадров/сек (1536 SPF)
Битовая глубина : 16 бит
Метод сжатия : С потерями
Размер потока : 387 Мбайт (2%)
Заголовок : Профессиональный (многоголосый закадровый) R5 (Twister)
Язык : Russian
Default : Да
Forced : Нет
Аудио #2
Идентификатор : 3
Формат : AC-3
Формат/Информация : Audio Coding 3
Параметр Endianness формата : Big
Идентификатор кодека : A_AC3
Продолжительность : 2 ч. 0 м.
Вид битрейта : Постоянный
Битрейт : 512 Кбит/сек
Каналы : 6 каналов
Расположение каналов : Front: L C R, Side: L R, LFE
Частота : 48,0 КГц
Частота кадров : 31,250 кадров/сек (1536 SPF)
Битовая глубина : 16 бит
Метод сжатия : С потерями
Размер потока : 443 Мбайт (3%)
Заголовок : Профессиональный (многоголосый закадровый) Киномания
Язык : Russian
Default : Нет
Forced : Нет
Аудио #3
Идентификатор : 4
Формат : AC-3
Формат/Информация : Audio Coding 3
Параметр Endianness формата : Big
Идентификатор кодека : A_AC3
Продолжительность : 2 ч. 0 м.
Вид битрейта : Постоянный
Битрейт : 224 Кбит/сек
Каналы : 2 канала
Расположение каналов : Front: L R
Частота : 48,0 КГц
Частота кадров : 31,250 кадров/сек (1536 SPF)
Битовая глубина : 16 бит
Метод сжатия : С потерями
Размер потока : 194 Мбайт (1%)
Заголовок : Профессиональный (многоголосый закадровый) ДТВ
Язык : Russian
Default : Нет
Forced : Нет
Аудио #4
Идентификатор : 5
Формат : AC-3
Формат/Информация : Audio Coding 3
Параметр Endianness формата : Big
Идентификатор кодека : A_AC3
Продолжительность : 2 ч. 0 м.
Вид битрейта : Постоянный
Битрейт : 224 Кбит/сек
Каналы : 2 канала
Расположение каналов : Front: L R
Частота : 48,0 КГц
Частота кадров : 31,250 кадров/сек (1536 SPF)
Битовая глубина : 16 бит
Метод сжатия : С потерями
Размер потока : 194 Мбайт (1%)
Заголовок : Профессиональный (многоголосый закадровый) Петербург 5 канал
Язык : Russian
Default : Нет
Forced : Нет
Аудио #5
Идентификатор : 6
Формат : AC-3
Формат/Информация : Audio Coding 3
Параметр Endianness формата : Big
Идентификатор кодека : A_AC3
Продолжительность : 2 ч. 0 м.
Вид битрейта : Постоянный
Битрейт : 224 Кбит/сек
Каналы : 2 канала
Расположение каналов : Front: L R
Частота : 48,0 КГц
Частота кадров : 31,250 кадров/сек (1536 SPF)
Битовая глубина : 16 бит
Метод сжатия : С потерями
Размер потока : 194 Мбайт (1%)
Заголовок : Профессиональный (многоголосый закадровый) ТВЦ
Язык : Russian
Default : Нет
Forced : Нет
Аудио #6
Идентификатор : 7
Формат : AC-3
Формат/Информация : Audio Coding 3
Параметр Endianness формата : Big
Идентификатор кодека : A_AC3
Продолжительность : 2 ч. 0 м.
Вид битрейта : Постоянный
Битрейт : 224 Кбит/сек
Каналы : 2 канала
Расположение каналов : Front: L R
Частота : 48,0 КГц
Частота кадров : 31,250 кадров/сек (1536 SPF)
Битовая глубина : 16 бит
Метод сжатия : С потерями
Размер потока : 194 Мбайт (1%)
Заголовок : Профессиональный (двухголосый закадровый) Тивионика
Язык : Russian
Default : Нет
Forced : Нет
Аудио #7
Идентификатор : 8
Формат : AC-3
Формат/Информация : Audio Coding 3
Параметр Endianness формата : Big
Идентификатор кодека : A_AC3
Продолжительность : 2 ч. 0 м.
Вид битрейта : Постоянный
Битрейт : 640 Кбит/сек
Каналы : 6 каналов
Расположение каналов : Front: L C R, Side: L R, LFE
Частота : 48,0 КГц
Частота кадров : 31,250 кадров/сек (1536 SPF)
Битовая глубина : 16 бит
Метод сжатия : С потерями
Размер потока : 553 Мбайт (3%)
Заголовок : Профессиональный (двухголосый закадровый) П. Гланц и И. Королёва
Язык : Russian
Default : Нет
Forced : Нет
Аудио #8
Идентификатор : 9
Формат : AC-3
Формат/Информация : Audio Coding 3
Параметр Endianness формата : Big
Идентификатор кодека : A_AC3
Продолжительность : 2 ч. 0 м.
Вид битрейта : Постоянный
Битрейт : 640 Кбит/сек
Каналы : 6 каналов
Расположение каналов : Front: L C R, Side: L R, LFE
Частота : 48,0 КГц
Частота кадров : 31,250 кадров/сек (1536 SPF)
Битовая глубина : 16 бит
Метод сжатия : С потерями
Размер потока : 553 Мбайт (3%)
Заголовок : Авторский (одноголосый, закадровый) А. Гаврилов
Язык : Russian
Default : Нет
Forced : Нет
Аудио #9
Идентификатор : 10
Формат : AC-3
Формат/Информация : Audio Coding 3
Параметр Endianness формата : Big
Идентификатор кодека : A_AC3
Продолжительность : 2 ч. 0 м.
Вид битрейта : Постоянный
Битрейт : 640 Кбит/сек
Каналы : 6 каналов
Расположение каналов : Front: L C R, Side: L R, LFE
Частота : 48,0 КГц
Частота кадров : 31,250 кадров/сек (1536 SPF)
Битовая глубина : 16 бит
Метод сжатия : С потерями
Размер потока : 553 Мбайт (3%)
Заголовок : Авторский (одноголосый, закадровый) Ю. Живов
Язык : Russian
Default : Нет
Forced : Нет
Аудио #10
Идентификатор : 11
Формат : AC-3
Формат/Информация : Audio Coding 3
Параметр Endianness формата : Big
Идентификатор кодека : A_AC3
Продолжительность : 2 ч. 0 м.
Вид битрейта : Постоянный
Битрейт : 640 Кбит/сек
Каналы : 6 каналов
Расположение каналов : Front: L C R, Side: L R, LFE
Частота : 48,0 КГц
Частота кадров : 31,250 кадров/сек (1536 SPF)
Битовая глубина : 16 бит
Метод сжатия : С потерями
Размер потока : 553 Мбайт (3%)
Заголовок : Авторский (одноголосый, закадровый) М. Чадов ненорматив
Язык : Russian
Default : Нет
Forced : Нет
Аудио #11
Идентификатор : 12
Формат : AC-3
Формат/Информация : Audio Coding 3
Параметр Endianness формата : Big
Идентификатор кодека : A_AC3
Продолжительность : 2 ч. 0 м.
Вид битрейта : Постоянный
Битрейт : 448 Кбит/сек
Каналы : 6 каналов
Расположение каналов : Front: L C R, Side: L R, LFE
Частота : 48,0 КГц
Частота кадров : 31,250 кадров/сек (1536 SPF)
Битовая глубина : 16 бит
Метод сжатия : С потерями
Размер потока : 387 Мбайт (2%)
Заголовок : Авторский (одноголосый, закадровый) М. Чадов v.1
Язык : Russian
Default : Нет
Forced : Нет
Аудио #12
Идентификатор : 13
Формат : AC-3
Формат/Информация : Audio Coding 3
Параметр Endianness формата : Big
Идентификатор кодека : A_AC3
Продолжительность : 2 ч. 0 м.
Вид битрейта : Постоянный
Битрейт : 224 Кбит/сек
Каналы : 2 канала
Расположение каналов : Front: L R
Частота : 48,0 КГц
Частота кадров : 31,250 кадров/сек (1536 SPF)
Битовая глубина : 16 бит
Метод сжатия : С потерями
Размер потока : 194 Мбайт (1%)
Заголовок : Авторский (одноголосый, закадровый)
Язык : Russian
Default : Нет
Forced : Нет
Аудио #13
Идентификатор : 14
Формат : AC-3
Формат/Информация : Audio Coding 3
Параметр Endianness формата : Big
Идентификатор кодека : A_AC3
Продолжительность : 2 ч. 0 м.
Вид битрейта : Постоянный
Битрейт : 224 Кбит/сек
Каналы : 2 канала
Расположение каналов : Front: L R
Частота : 48,0 КГц
Частота кадров : 31,250 кадров/сек (1536 SPF)
Битовая глубина : 16 бит
Метод сжатия : С потерями
Размер потока : 194 Мбайт (1%)
Заголовок : Профессиональный (двухголосый закадровый) НТН
Язык : Ukrainian
Default : Нет
Forced : Нет
Аудио #14
Идентификатор : 15
Формат : AC-3
Формат/Информация : Audio Coding 3
Параметр Endianness формата : Big
Идентификатор кодека : A_AC3
Продолжительность : 2 ч. 0 м.
Вид битрейта : Постоянный
Битрейт : 640 Кбит/сек
Каналы : 6 каналов
Расположение каналов : Front: L C R, Side: L R, LFE
Частота : 48,0 КГц
Частота кадров : 31,250 кадров/сек (1536 SPF)
Битовая глубина : 16 бит
Метод сжатия : С потерями
Размер потока : 553 Мбайт (3%)
Заголовок : Оригинал
Язык : English
Default : Нет
Forced : Нет
Аудио #15
Идентификатор : 16
Формат : AC-3
Формат/Информация : Audio Coding 3
Параметр Endianness формата : Big
Идентификатор кодека : A_AC3
Продолжительность : 2 ч. 0 м.
Вид битрейта : Постоянный
Битрейт : 192 Кбит/сек
Каналы : 2 канала
Расположение каналов : Front: L R
Частота : 48,0 КГц
Частота кадров : 31,250 кадров/сек (1536 SPF)
Битовая глубина : 16 бит
Метод сжатия : С потерями
Размер потока : 166 Мбайт (1%)
Заголовок : Commentary by Tony Scott
Язык : Russian
Default : Нет
Forced : Нет
Аудио #16
Идентификатор : 17
Формат : AC-3
Формат/Информация : Audio Coding 3
Параметр Endianness формата : Big
Идентификатор кодека : A_AC3
Продолжительность : 2 ч. 0 м.
Вид битрейта : Постоянный
Битрейт : 192 Кбит/сек
Каналы : 2 канала
Расположение каналов : Front: L R
Частота : 48,0 КГц
Частота кадров : 31,250 кадров/сек (1536 SPF)
Битовая глубина : 16 бит
Метод сжатия : С потерями
Размер потока : 166 Мбайт (1%)
Заголовок : Commentary by Tony Scott
Язык : English
Default : Нет
Forced : Нет
Аудио #17
Идентификатор : 18
Формат : AC-3
Формат/Информация : Audio Coding 3
Параметр Endianness формата : Big
Идентификатор кодека : A_AC3
Продолжительность : 2 ч. 0 м.
Вид битрейта : Постоянный
Битрейт : 192 Кбит/сек
Каналы : 2 канала
Расположение каналов : Front: L R
Частота : 48,0 КГц
Частота кадров : 31,250 кадров/сек (1536 SPF)
Битовая глубина : 16 бит
Метод сжатия : С потерями
Размер потока : 166 Мбайт (1%)
Заголовок : Commentary by Quentin Tarantino
Язык : English
Default : Нет
Forced : Нет
Аудио #18
Идентификатор : 19
Формат : AC-3
Формат/Информация : Audio Coding 3
Параметр Endianness формата : Big
Идентификатор кодека : A_AC3
Продолжительность : 2 ч. 0 м.
Вид битрейта : Постоянный
Битрейт : 192 Кбит/сек
Каналы : 2 канала
Расположение каналов : Front: L R
Частота : 48,0 КГц
Частота кадров : 31,250 кадров/сек (1536 SPF)
Битовая глубина : 16 бит
Метод сжатия : С потерями
Размер потока : 166 Мбайт (1%)
Заголовок : Commentary by Christian Slater and Patricia Arquette
Язык : English
Default : Нет
Forced : Нет
Текст #1
Идентификатор : 20
Формат : UTF-8
Идентификатор кодека : S_TEXT/UTF8
Идентификатор кодека/Информация : UTF-8 Plain Text
Заголовок : R5
Язык : Russian
Default : Нет
Forced : Нет
Текст #2
Идентификатор : 21
Формат : UTF-8
Идентификатор кодека : S_TEXT/UTF8
Идентификатор кодека/Информация : UTF-8 Plain Text
Язык : English
Default : Нет
Forced : Нет
Меню
00:00:00.000 : en:Chapter 1
00:03:23.119 : en:Chapter 2
00:05:49.557 : en:Chapter 3
00:08:43.146 : en:Chapter 4
00:12:07.893 : en:Chapter 5
00:17:37.306 : en:Chapter 6
00:19:04.476 : en:Chapter 7
00:20:41.949 : en:Chapter 8
00:24:28.800 : en:Chapter 9
00:32:21.147 : en:Chapter 10
00:34:21.559 : en:Chapter 11
00:40:24.880 : en:Chapter 12
00:41:41.332 : en:Chapter 13
00:44:55.651 : en:Chapter 14
00:47:10.536 : en:Chapter 15
00:58:24.042 : en:Chapter 16
01:03:57.542 : en:Chapter 17
01:08:01.077 : en:Chapter 18
01:11:37.501 : en:Chapter 19
01:13:08.258 : en:Chapter 20
01:18:40.674 : en:Chapter 21
01:24:09.586 : en:Chapter 22
01:27:49.222 : en:Chapter 23
01:31:53.716 : en:Chapter 24
01:33:46.162 : en:Chapter 25
01:37:26.381 : en:Chapter 26
01:38:37.745 : en:Chapter 27
01:43:01.967 : en:Chapter 28
01:46:55.117 : en:Chapter 29
01:47:48.128 : en:Chapter 30
01:48:56.238 : en:Chapter 31
01:51:08.411 : en:Chapter 32
01:54:12.929 : en:Chapter 33
[korsars.info].t24091.torrent 
Торрент: Зарегистрирован [ 2019-11-17 13:00 ] · 98ECB560E1D95E0F8EC41911398AA6CF8D0F765B

Скачать .torrent

Скачать .torrent

84 KB

Статус: проверено
.torrent скачан: 1 раз
Размер: 16,61 GB
Правила
Похожие темы

[Профиль] [ЛС]
Показать сообщения:    
Ответить на тему

Текущее время: 12-Дек 02:39

Часовой пояс: UTC + 4



Вы не можете начинать темы
Вы не можете отвечать на сообщения
Вы не можете редактировать свои сообщения
Вы не можете удалять свои сообщения
Вы не можете голосовать в опросах
Вы не можете прикреплять файлы к сообщениям
Вы можете скачивать файлы
Анализ сайта korsars.info Яндекс.Метрика