Красная жара / Red Heat (1988) BDRip 720p от k.e.n & MegaPeer | P, P2, A | Remastered

Ответить на тему
Статистика раздачи [Обновить пиров]
Размер:  7,75 GB   |    Зарегистрирован:  24 дня   |    .torrent скачан:  2 раза
Сидов:  11  [  0 KB/s  ]   Личеров:  6  [  0 KB/s  ]   Подробная статистика пиров
 
   
 
 
Автор Сообщение

4udaki ®

Оффлайн



Пол: Мужской

Стаж: 5 лет 1 месяц

Наличие запрета:

Сообщений: 4738

Откуда: korsars.info

Отдача: 2 Mb/s

Загрузка: 20 Mb/s

Нажми

Создавать темы 17-Ноя-2019 17:00

[Цитировать]


Информация о фильме
Название: Красная жара
Оригинальное название: Red Heat
Год выхода: 1988
Жанр: боевик, триллер, комедия, криминал
Режиссер: Уолтер Хилл
В ролях: Арнольд Шварценеггер, Джеймс Белуши, Питер Бойл, Эд О`Росс, Лоуренс Фишборн, Джина Гершон, Ричард Брайт, Дж.В. Смит, Брент Дженнингс, Гретчен Палмер
О фильме: В доперестроичные времена торговля наркотиками была из ряда вон выходящим преступлением. На борьбу с грузинским мафиози, который используя все связи США, пытается пристрастить к кокаину советских граждан, выходит гроза преступного мира милиционер Иван Данко.
Этот парень не любит шутить, и доказательством серьезности его намерений служат большие мускулы и пистолет. Чтобы арестовать бандита, Иван направляется в Чикаго — рассадник капиталистической заразы. Там его помощником становится болтливый полицейский. Вместе они обезвреживают мафиози, разрушив при этом полгорода и расстреляв пару десятков негодяев.

Страна: США
Студия: Carolco Pictures, Lone Wolf, Oak Pictures
Продолжительность: 01:44:10
Перевод: Профессиональный многоголосый, профессиональный двухголосый, авторский
Файл
Кодек: H.264
Качество: BDRip 720p
Видео: AVC, 1280x692 (1.85:1), 24 fps, 6831 kbps (0.321 bit/pixel)
Аудио #1: AC3, 48 kHz, 6 ch, 448 kbps - Русский, MVO (BluRay)
Аудио #2: AC3, 48 kHz, 2 ch, 192 kbps - Русский, MVO (OPT)
Аудио #3: AC3, 48 kHz, 2 ch, 192 kbps - Русский, MVO (Лазер Видео)
Аудио #4: AC3, 48 kHz, 2 ch, 192 kbps - Русский, DVO (TB6)
Аудио #5: AC3, 48 kHz, 6 ch, 448 kbps - Русский, AVO (А.Гаврилов)
Аудио #6: AC3, 48 kHz, 6 ch, 448 kbps - Русский, AVO (Ю.Живов)
Аудио #7: AC3, 48 kHz, 2 ch, 192 kbps - Русский, AVO (В.Горчаков)
Аудио #8: AC3, 48 kHz, 6 ch, 448 kbps - Русский, AVO (Д.Гоблин aka Д. Пучков)
Аудио #9: AC3, 48 kHz, 2 ch, 192 kbps - Русский, AVO (Ю.Медведев)
Аудио #10: AC3, 48 k kHz, 6 ch, 448 kbps - Русский, AVO (Л.Володарский)
Аудио #11: AC3, 48 k kHz, 2 ch, 192 kbps - Русский, AVO (Е.Хрусталев)
Аудио #12: AC3, 48.0 kHz, 6 ch, 448 kbps - Русский, Original
Субтитры: Русский, английский
Релиз от: &

MI

Format : Matroska
Format version : Version 2
File size : 7.75 GiB
Duration : 1 h 44 min
Overall bit rate : 10.7 Mb/s
Encoded date : UTC 2019-11-02 08:45:55
Writing application : mkvmerge v5.3.0 ('I could have danced') built on Feb 9 2012 10:38:07
Writing library : libebml v1.2.3 + libmatroska v1.3.0
Cover : Yes
Attachments : cover (4).jpg
Video
ID : 1
Format : AVC
Format/Info : Advanced Video Codec
Format profile : [email protected]
Format settings : CABAC / 9 Ref Frames
Format settings, CABAC : Yes
Format settings, ReFrames : 9 frames
Codec ID : V_MPEG4/ISO/AVC
Duration : 1 h 44 min
Bit rate : 6 831 kb/s
Width : 1 280 pixels
Height : 692 pixels
Display aspect ratio : 1.85:1
Frame rate mode : Constant
Frame rate : 24.000 FPS
Color space : YUV
Chroma subsampling : 4:2:0
Bit depth : 8 bits
Scan type : Progressive
Bits/(Pixel*Frame) : 0.321
Stream size : 4.81 GiB (62%)
Writing library : x264 core 158 r2984 3759fcb
Encoding settings : cabac=1 / ref=9 / deblock=1:-3:-3 / analyse=0x3:0x133 / me=umh / subme=11 / psy=1 / psy_rd=1.00:0.00 / mixed_ref=1 / me_range=32 / chroma_me=1 / trellis=2 / 8x8dct=1 / cqm=0 / deadzone=21,11 / fast_pskip=0 / chroma_qp_offset=-2 / threads=12 / lookahead_threads=3 / sliced_threads=0 / nr=0 / decimate=0 / interlaced=0 / bluray_compat=0 / constrained_intra=0 / bframes=14 / b_pyramid=2 / b_adapt=2 / b_bias=0 / direct=3 / weightb=1 / open_gop=0 / weightp=2 / keyint=240 / keyint_min=24 / scenecut=40 / intra_refresh=0 / rc_lookahead=60 / rc=2pass / mbtree=0 / bitrate=6831 / ratetol=1.0 / qcomp=0.65 / qpmin=0 / qpmax=69 / qpstep=4 / cplxblur=20.0 / qblur=0.5 / vbv_maxrate=50000 / vbv_bufsize=62500 / nal_hrd=none / filler=0 / ip_ratio=1.24 / pb_ratio=1.26 / aq=3:0.90
Language : English
Default : Yes
Forced : No
Color range : Limited
Color primaries : BT.709
Transfer characteristics : BT.709
Matrix coefficients : BT.709
Audio #1
ID : 2
Format : AC-3
Format/Info : Audio Coding 3
Commercial name : Dolby Digital
Codec ID : A_AC3
Duration : 1 h 44 min
Bit rate mode : Constant
Bit rate : 448 kb/s
Channel(s) : 6 channels
Channel layout : L R C LFE Ls Rs
Sampling rate : 48.0 kHz
Frame rate : 31.250 FPS (1536 SPF)
Bit depth : 16 bits
Compression mode : Lossy
Stream size : 334 MiB (4%)
Title : MVO ( BluRay )
Language : Russian
Service kind : Complete Main
Default : Yes
Forced : No
Audio #2
ID : 3
Format : AC-3
Format/Info : Audio Coding 3
Commercial name : Dolby Digital
Codec ID : A_AC3
Duration : 1 h 44 min
Bit rate mode : Constant
Bit rate : 192 kb/s
Channel(s) : 2 channels
Channel layout : L R
Sampling rate : 48.0 kHz
Frame rate : 31.250 FPS (1536 SPF)
Bit depth : 16 bits
Compression mode : Lossy
Stream size : 143 MiB (2%)
Title : MVO ( OPT )
Language : Russian
Service kind : Complete Main
Default : No
Forced : No
Audio #3
ID : 4
Format : AC-3
Format/Info : Audio Coding 3
Commercial name : Dolby Digital
Codec ID : A_AC3
Duration : 1 h 44 min
Bit rate mode : Constant
Bit rate : 192 kb/s
Channel(s) : 2 channels
Channel layout : L R
Sampling rate : 48.0 kHz
Frame rate : 31.250 FPS (1536 SPF)
Bit depth : 16 bits
Compression mode : Lossy
Stream size : 143 MiB (2%)
Title : MVO ( Лазер Видео )
Language : Russian
Service kind : Complete Main
Default : No
Forced : No
Audio #4
ID : 5
Format : AC-3
Format/Info : Audio Coding 3
Commercial name : Dolby Digital
Codec ID : A_AC3
Duration : 1 h 44 min
Bit rate mode : Constant
Bit rate : 192 kb/s
Channel(s) : 2 channels
Channel layout : L R
Sampling rate : 48.0 kHz
Frame rate : 31.250 FPS (1536 SPF)
Bit depth : 16 bits
Compression mode : Lossy
Stream size : 143 MiB (2%)
Title : DVO ( TB6 )
Language : Russian
Service kind : Complete Main
Default : No
Forced : No
Audio #5
ID : 6
Format : AC-3
Format/Info : Audio Coding 3
Commercial name : Dolby Digital
Codec ID : A_AC3
Duration : 1 h 44 min
Bit rate mode : Constant
Bit rate : 448 kb/s
Channel(s) : 6 channels
Channel layout : L R C LFE Ls Rs
Sampling rate : 48.0 kHz
Frame rate : 31.250 FPS (1536 SPF)
Bit depth : 16 bits
Compression mode : Lossy
Stream size : 334 MiB (4%)
Title : AVO ( Гаврилов )
Language : Russian
Service kind : Complete Main
Default : No
Forced : No
Audio #6
ID : 7
Format : AC-3
Format/Info : Audio Coding 3
Commercial name : Dolby Digital
Codec ID : A_AC3
Duration : 1 h 44 min
Bit rate mode : Constant
Bit rate : 448 kb/s
Channel(s) : 6 channels
Channel layout : L R C LFE Ls Rs
Sampling rate : 48.0 kHz
Frame rate : 31.250 FPS (1536 SPF)
Bit depth : 16 bits
Compression mode : Lossy
Stream size : 334 MiB (4%)
Title : AVO ( Живов )
Language : Russian
Service kind : Complete Main
Default : No
Forced : No
Audio #7
ID : 8
Format : AC-3
Format/Info : Audio Coding 3
Commercial name : Dolby Digital
Codec ID : A_AC3
Duration : 1 h 44 min
Bit rate mode : Constant
Bit rate : 192 kb/s
Channel(s) : 2 channels
Channel layout : L R
Sampling rate : 48.0 kHz
Frame rate : 31.250 FPS (1536 SPF)
Bit depth : 16 bits
Compression mode : Lossy
Stream size : 143 MiB (2%)
Title : AVO ( Горчаков )
Language : Russian
Service kind : Complete Main
Default : No
Forced : No
Audio #8
ID : 9
Format : AC-3
Format/Info : Audio Coding 3
Commercial name : Dolby Digital
Codec ID : A_AC3
Duration : 1 h 44 min
Bit rate mode : Constant
Bit rate : 448 kb/s
Channel(s) : 6 channels
Channel layout : L R C LFE Ls Rs
Sampling rate : 48.0 kHz
Frame rate : 31.250 FPS (1536 SPF)
Bit depth : 16 bits
Compression mode : Lossy
Stream size : 334 MiB (4%)
Title : AVO ( Гоблин aka Д. Пучков )
Language : Russian
Service kind : Complete Main
Default : No
Forced : No
Audio #9
ID : 10
Format : AC-3
Format/Info : Audio Coding 3
Commercial name : Dolby Digital
Codec ID : A_AC3
Duration : 1 h 44 min
Bit rate mode : Constant
Bit rate : 192 kb/s
Channel(s) : 2 channels
Channel layout : L R
Sampling rate : 48.0 kHz
Frame rate : 31.250 FPS (1536 SPF)
Bit depth : 16 bits
Compression mode : Lossy
Stream size : 143 MiB (2%)
Title : AVO ( Медведев )
Language : Russian
Service kind : Complete Main
Default : No
Forced : No
Audio #10
ID : 11
Format : AC-3
Format/Info : Audio Coding 3
Commercial name : Dolby Digital
Codec ID : A_AC3
Duration : 1 h 44 min
Bit rate mode : Constant
Bit rate : 448 kb/s
Channel(s) : 6 channels
Channel layout : L R C LFE Ls Rs
Sampling rate : 48.0 kHz
Frame rate : 31.250 FPS (1536 SPF)
Bit depth : 16 bits
Compression mode : Lossy
Stream size : 334 MiB (4%)
Title : AVO ( Володарский )
Language : Russian
Service kind : Complete Main
Default : No
Forced : No
Audio #11
ID : 12
Format : AC-3
Format/Info : Audio Coding 3
Commercial name : Dolby Digital
Codec ID : A_AC3
Duration : 1 h 44 min
Bit rate mode : Constant
Bit rate : 192 kb/s
Channel(s) : 2 channels
Channel layout : L R
Sampling rate : 48.0 kHz
Frame rate : 31.250 FPS (1536 SPF)
Bit depth : 16 bits
Compression mode : Lossy
Stream size : 143 MiB (2%)
Title : AVO ( Хрусталев )
Language : Russian
Service kind : Complete Main
Default : No
Forced : No
Audio #12
ID : 13
Format : AC-3
Format/Info : Audio Coding 3
Commercial name : Dolby Digital
Codec ID : A_AC3
Duration : 1 h 44 min
Bit rate mode : Constant
Bit rate : 448 kb/s
Channel(s) : 6 channels
Channel layout : L R C LFE Ls Rs
Sampling rate : 48.0 kHz
Frame rate : 31.250 FPS (1536 SPF)
Bit depth : 16 bits
Compression mode : Lossy
Stream size : 334 MiB (4%)
Title : Original
Language : English
Service kind : Complete Main
Default : No
Forced : No
Text #1
ID : 14
Format : UTF-8
Codec ID : S_TEXT/UTF8
Codec ID/Info : UTF-8 Plain Text
Title : full
Language : Russian
Default : No
Forced : No
Text #2
ID : 15
Format : UTF-8
Codec ID : S_TEXT/UTF8
Codec ID/Info : UTF-8 Plain Text
Title : forced
Language : English
Default : No
Forced : No
Text #3
ID : 16
Format : UTF-8
Codec ID : S_TEXT/UTF8
Codec ID/Info : UTF-8 Plain Text
Title : full
Language : English
Default : No
Forced : No
Menu
00:00:00.000 : :Chapter 01
00:07:50.000 : :Chapter 02
00:19:22.458 : :Chapter 03
00:26:07.625 : :Chapter 04
00:35:07.333 : :Chapter 05
00:45:05.875 : :Chapter 06
00:54:04.375 : :Chapter 07
01:02:51.875 : :Chapter 08
01:12:14.958 : :Chapter 09
01:21:59.416 : :Chapter 10
01:28:36.166 : :Chapter 11
01:37:26.750 : :Chapter 12
01:43:57.958 : :Chapter 13

Скриншоты

[korsars.info].t24096.torrent 
Торрент: Зарегистрирован [ 2019-11-17 17:00 ] · B3D76ECC08935E445278B710E449F6778083E3B7

Скачать .torrent

Скачать .torrent

20 KB

Статус: проверено
.torrent скачан: 2 раз
Размер: 7,75 GB
Правила
Похожие темы

[Профиль] [ЛС]

4udaki ®

Оффлайн



Пол: Мужской

Стаж: 5 лет 1 месяц

Наличие запрета:

Сообщений: 4738

Откуда: korsars.info

Отдача: 2 Mb/s

Загрузка: 20 Mb/s

Нажми

Создавать темы 17-Ноя-2019 17:33 (спустя 33 минуты)

[Цитировать]

Хулиганы ag
[Профиль] [ЛС]
Показать сообщения:    
Ответить на тему

Текущее время: 12-Дек 02:37

Часовой пояс: UTC + 4



Вы не можете начинать темы
Вы не можете отвечать на сообщения
Вы не можете редактировать свои сообщения
Вы не можете удалять свои сообщения
Вы не можете голосовать в опросах
Вы не можете прикреплять файлы к сообщениям
Вы можете скачивать файлы
Анализ сайта korsars.info Яндекс.Метрика