Тор / Thor (2011) BDRip-HEVC 1080p от HEVC-CLUB | D

Ответить на тему
Статистика раздачи [Обновить пиров]
Размер:  7,58 GB   |    Зарегистрирован:  22 дня   |    .torrent скачан:  0 раз
Сидов:  17  [  0 KB/s  ]   Личеров:  4  [  0 KB/s  ]   Подробная статистика пиров
 
   
 
 
Автор Сообщение

4udaki ®

Оффлайн



Пол: Мужской

Стаж: 5 лет 1 месяц

Наличие запрета:

Сообщений: 4738

Откуда: korsars.info

Отдача: 2 Mb/s

Загрузка: 20 Mb/s

Нажми

Создавать темы 19-Ноя-2019 05:00

[Цитировать]

Название: Тор
Оригинальное название: Thor
Год выхода: 2011
Жанр: фантастика, боевик, фэнтези, приключения
Режиссер: Кеннет Брана
В ролях: Крис Хемсворт, Натали Портман, Том Хиддлстон, Энтони Хопкинс, Стеллан Скарсгард, Кэт Деннингс, Кларк Грегг, Колм Фиор, Идрис Эльба, Рэй Стивенсон
О фильме: Эпическое приключение происходит как на нашей планете Земля, так и в королевстве богов Асгарде. В центре истории — Могучий Тор, сильный, но высокомерный воин, чьи безрассудные поступки возрождают древнюю войну в Асгарде. Тора отправляют в ссылку на Землю, лишают сил и заставляют жить среди обычных людей в качестве наказания…

Страна: США
Студия: Marvel Studios
Продолжительность: 01:54:50
Перевод: дублированный
Качество: BDRip-HEVC 1080p
Кодек: HEVC (x265)
Видео: 1920x816 (2,35:1), 8166 кбит/сек, 0.217 бит/(Пиксели*Кадры), 23.976 (24000/1001) кадр/сек, HEVC ([email protected]@High) 10 бит
Звук:
Аудио1: AC3, 6 ch, 640 Kbps - русский Дублированный
Аудио2: AC3, 6 ch, 640 Kbps - english Original
Субтитры: Русские полные (SRT), English full (SRT)
Навигация по главам: Есть

Mediainfo

x265 [info]: frame I: 706, Avg QP:17.95 kb/s: 19637.02
x265 [info]: frame P: 32072, Avg QP:20.20 kb/s: 12790.19
x265 [info]: frame B: 132418, Avg QP:21.24 kb/s: 6983.98
x265 [info]: Weighted P-Frames: Y:15.2% UV:12.7%
x265 [info]: Weighted B-Frames: Y:18.2% UV:14.3%
x265 [info]: consecutive B-frames: 6.4% 12.1% 8.1% 20.8% 11.1% 22.2% 4.9% 5.3% 2.5% 1.7% 1.2% 2.0% 0.4% 0.3% 0.3% 0.3% 0.3%
x265 [info]: encoded 165196 frames in 146299.30s (1.13 fps), 8165.30 kb/s, Avg QP:21.02
Формат : Matroska
Версия формата : Version 4
Размер файла : 7,58 Гбайт
Продолжительность : 1 ч. 54 м.
Общий поток : 9448 Кбит/сек
Название фильма : Thor.2011.BDRemux.1080p
Дата кодирования : UTC 2019-11-13 13:41:28
Программа кодирования : mkvmerge v40.0.0 ('Old Town Road + Pony') 64-bit
Библиотека кодирования : libebml v1.3.9 + libmatroska v1.5.2
Видео
Идентификатор : 1
Формат : HEVC
Формат/Информация : High Efficiency Video Coding
Профиль формата : Main [email protected]@High
Идентификатор кодека : V_MPEGH/ISO/HEVC
Продолжительность : 1 ч. 54 м.
Битрейт : 8166 Кбит/сек
Ширина : 1920 пикселей
Высота : 816 пикселей
Соотношение сторон : 2,35:1
Режим частоты кадров : Постоянный
Частота кадров : 23,976 (24000/1001) кадра/сек
Цветовое пространство : YUV
Субдискретизация насыщенности : 4:2:0
Битовая глубина : 10 бит
Бит/(Пиксели*Кадры) : 0.217
Размер потока : 6,55 Гбайт (86%)
Заголовок : Thor / Rip by OldGamer
Библиотека кодирования : x265 2.9+15-81373aab81df:[Windows][GCC 8.2.0][64 bit] 10bit
Настройки программы : cpuid=1111039 / frame-threads=3 / numa-pools=12 / wpp / no-pmode / no-pme / no-psnr / no-ssim / log-level=2 / input-csp=1 / input-res=1920x816 / interlace=0 / total-frames=165196 / level-idc=41 / high-tier=1 / uhd-bd=0 / ref=5 / no-allow-non-conformance / no-repeat-headers / annexb / no-aud / no-hrd / info / hash=0 / no-temporal-layers / open-gop / min-keyint=23 / keyint=240 / gop-lookahead=0 / bframes=16 / b-adapt=2 / b-pyramid / bframe-bias=0 / rc-lookahead=80 / lookahead-slices=0 / scenecut=40 / radl=0 / no-splice / no-intra-refresh / ctu=64 / min-cu-size=8 / rect / amp / max-tu-size=32 / tu-inter-depth=4 / tu-intra-depth=4 / limit-tu=1 / rdoq-level=2 / dynamic-rd=0.00 / no-ssim-rd / signhide / no-tskip / nr-intra=0 / nr-inter=0 / no-constrained-intra / no-strong-intra-smoothing / max-merge=5 / limit-refs=3 / limit-modes / me=3 / subme=7 / merange=57 / temporal-mvp / weightp / weightb / no-analyze-src-pics / deblock=-3:-3 / no-sao / no-sao-non-deblock / rd=6 / no-early-skip / rskip / no-fast-intra / no-tskip-fast / no-cu-lossless / b-intra / no-splitrd-skip / rdpenalty=0 / psy-rd=2.00 / psy-rdoq=1.00 / no-rd-refine / no-lossless / cbqpoffs=0 / crqpoffs=0 / rc=crf / crf=19.8 / qcomp=0.75 / qpstep=4 / stats-write=0 / stats-read=0 / vbv-maxrate=50000 / vbv-bufsize=50000 / vbv-init=0.9 / crf-max=0.0 / crf-min=0.0 / ipratio=1.40 / pbratio=1.30 / aq-mode=2 / aq-strength=0.80 / no-cutree / zone-count=1 / zones: / start-frame=154059 / end-frame=162730 / qp=35 / no-strict-cbr / qg-size=32 / no-rc-grain / qpmax=69 / qpmin=0 / no-const-vbv / sar=1 / overscan=0 / videoformat=5 / range=0 / colorprim=2 / transfer=2 / colormatrix=2 / chromaloc=0 / display-window=0 / max-cll=0,0 / min-luma=0 / max-luma=1023 / log2-max-poc-lsb=8 / vui-timing-info / vui-hrd-info / slices=1 / no-opt-qp-pps / no-opt-ref-list-length-pps / no-multi-pass-opt-rps / scenecut-bias=0.00 / no-opt-cu-delta-qp / no-aq-motion / no-hdr / no-hdr-opt / no-dhdr10-opt / no-idr-recovery-sei / analysis-reuse-level=5 / scale-factor=0 / refine-intra=0 / refine-inter=0 / refine-mv=0 / no-limit-sao / ctu-info=0 / no-lowpass-dct / refine-mv-type=0 / copy-pic=1 / max-ausize-factor=1.0 / no-dynamic-refine / no-single-sei
Язык : English
Default : Да
Forced : Нет
Аудио #1
Идентификатор : 2
Формат : AC-3
Формат/Информация : Audio Coding 3
Коммерческое название : Dolby Digital
Идентификатор кодека : A_AC3
Продолжительность : 1 ч. 54 м.
Вид битрейта : Постоянный
Битрейт : 640 Кбит/сек
Каналы : 6 каналов
Channel layout : L R C LFE Ls Rs
Частота : 48,0 КГц
Частота кадров : 31,250 кадров/сек (1536 SPF)
Битовая глубина : 16 бит
Метод сжатия : С потерями
Размер потока : 526 Мбайт (7%)
Язык : Russian
ServiceKind : Complete Main
Default : Да
Forced : Нет
Аудио #2
Идентификатор : 3
Формат : AC-3
Формат/Информация : Audio Coding 3
Коммерческое название : Dolby Digital
Идентификатор кодека : A_AC3
Продолжительность : 1 ч. 54 м.
Вид битрейта : Постоянный
Битрейт : 640 Кбит/сек
Каналы : 6 каналов
Channel layout : L R C LFE Ls Rs
Частота : 48,0 КГц
Частота кадров : 31,250 кадров/сек (1536 SPF)
Битовая глубина : 16 бит
Метод сжатия : С потерями
Размер потока : 526 Мбайт (7%)
Язык : English
ServiceKind : Complete Main
Default : Нет
Forced : Нет
Текст #1
Идентификатор : 4
Формат : UTF-8
Идентификатор кодека : S_TEXT/UTF8
Идентификатор кодека/Информация : UTF-8 Plain Text
Продолжительность : 1 ч. 54 м.
Битрейт : 53 бит/сек
ElementCount : 1106
Размер потока : 44,8 Кбайт (0%)
Заголовок : Full
Язык : Russian
Default : Нет
Forced : Нет
Текст #2
Идентификатор : 5
Формат : UTF-8
Идентификатор кодека : S_TEXT/UTF8
Идентификатор кодека/Информация : UTF-8 Plain Text
Продолжительность : 1 ч. 53 м.
Битрейт : 40 бит/сек
ElementCount : 1092
Размер потока : 33,2 Кбайт (0%)
Заголовок : Full
Язык : English
Default : Нет
Forced : Нет
Меню
00:00:00.000 : en:(01)00:00:00:000
00:10:38.137 : en:(02)00:10:38:137
00:17:33.135 : en:(03)00:17:33:135
00:26:02.602 : en:(04)00:26:02:602
00:32:28.196 : en:(05)00:32:28:196
00:37:28.412 : en:(06)00:37:28:412
00:42:14.198 : en:(07)00:42:14:198
00:52:10.377 : en:(08)00:52:10:377
01:01:24.972 : en:(09)01:01:24:972
01:08:45.538 : en:(10)01:08:45:538
01:15:39.159 : en:(11)01:15:39:159
01:21:19.249 : en:(12)01:21:19:249
01:30:35.346 : en:(13)01:30:35:346
01:40:58.177 : en:(14)01:40:58:177
01:45:13.724 : en:(15)01:45:13:724
01:53:06.196 : en:(16)01:53:06:196
01:54:50.425 : en:(17)01:54:50:425

Скриншоты

Автор: OldGamer
[korsars.info].t24132.torrent 
Торрент: Зарегистрирован [ 2019-11-19 05:00 ] · F179FC204C0897E687830D8EDBBDBFA349EA430A

Скачать .torrent

Скачать .torrent

20 KB

Статус: проверено
.torrent скачан: 0 раз
Размер: 7,58 GB
Правила
Похожие темы

[Профиль] [ЛС]
Показать сообщения:    
Ответить на тему

Текущее время: 12-Дек 02:40

Часовой пояс: UTC + 4



Вы не можете начинать темы
Вы не можете отвечать на сообщения
Вы не можете редактировать свои сообщения
Вы не можете удалять свои сообщения
Вы не можете голосовать в опросах
Вы не можете прикреплять файлы к сообщениям
Вы можете скачивать файлы
Анализ сайта korsars.info Яндекс.Метрика