Посыльный / Message Man (2018) BDRemux 1080p | HDRezka Studio

Ответить на тему
Статистика раздачи [Обновить пиров]
Размер:  14,62 GB   |    Зарегистрирован:  22 дня   |    .torrent скачан:  3 раза
Сидов:  27  [  0 KB/s  ]   Личеров:  7  [  0 KB/s  ]   Подробная статистика пиров
 
   
 
 
Автор Сообщение

4udaki ®

Оффлайн



Пол: Мужской

Стаж: 5 лет 1 месяц

Наличие запрета:

Сообщений: 4738

Откуда: korsars.info

Отдача: 2 Mb/s

Загрузка: 20 Mb/s

Нажми

Создавать темы 19-Ноя-2019 09:00

[Цитировать]

Посыльный / Message Man
Страна: Индонезия Австралия Великобритания ОАЭ
Производство: Citra Entertainment Group, Head Gear Films, HJ Production, Kreo Films FZ, Rhythmic Films
Год выпуска: 2018
Жанр: боевик, триллер, криминал
Продолжительность: 01:30:24
Режиссер: Кори Пирсон
В ролях: Пол О’Брайэн, Аджи Сантоса, Верди Солайман, Майк Льюис, Альфридиус Годфред, Валентайн Пайен, Эпи Куснандар
Описание: Приняв решение покончить с криминальным прошлым, бывший наемный убийца оседает вблизи побережья Индонезии, используя в качестве жилья маленькую яхту. Скромное и одинокое существование помогает Райану восстановить душевное спокойствие, но однажды его покой нарушает знакомство с задорным мальчиком Дони, которое быстро перерастает в дружбу. Однако вскоре размеренной жизни Райана приходит конец, когда Дони оказывается при смерти из-за действий местных бандитов. Готовясь отомстить за лучшего друга, бывший наемник неожиданно узнает, что индонезийские головорезы связаны с врагом из его прошлого...

Перевод: Профессиональный (многоголосый, закадровый) | HDRezka Studio
Субтитры: английские, немецкие-Качество: BDRemux 1080p
Формат: МКV
Видео кодек: AVC
Аудио кодек: АС3 | DTS
Видео: 1920x1080 (16:9), 24.000 fps, MPEG-4 AVC ~21.5 Mbps avg
Аудио №1: 48.0 kHz, AC3 Dolby Digital, 2/0 (L,R) ch, ~192 kbps | RUS / MVO / HDRezka Studio
Аудио №2: 48.0 kHz, Digital Theater Systems MA, 3/2 (L,C,R,l,r) + LFE ch, ~1472 kbps | ENG
Формат субтитров: UTF-8 Plain Text
Дата премьеры (мир): 8 марта 2018

Media Info

General
Unique ID : 185109470512803783694021596143229054426 (0x8B42C9879453A5D014AA4DE32527ADDA)
Complete name : Message.Man.2018.REMUX.mkv
Format : Matroska
Format version : Version 4 / Version 2
File size : 14.6 GiB
Duration : 1 h 30 min
Overall bit rate mode : Variable
Overall bit rate : 23.2 Mb/s
Encoded date : UTC 2019-11-05 17:54:53
Writing application : mkvmerge v20.0.0 ('I Am The Sun') 64-bit
Writing library : libebml v1.3.5 + libmatroska v1.4.8
Video
ID : 1
Format : AVC
Format/Info : Advanced Video Codec
Format profile : [email protected]
Format settings : CABAC / 2 Ref Frames
Format settings, CABAC : Yes
Format settings, RefFrames : 2 frames
Codec ID : V_MPEG4/ISO/AVC
Duration : 1 h 30 min
Bit rate mode : Variable
Bit rate : 21.5 Mb/s
Maximum bit rate : 30.2 Mb/s
Width : 1 920 pixels
Height : 1 080 pixels
Display aspect ratio : 16:9
Frame rate mode : Constant
Frame rate : 24.000 FPS
Color space : YUV
Chroma subsampling : 4:2:0
Bit depth : 8 bits
Scan type : Progressive
Bits/(Pixel*Frame) : 0.432
Stream size : 13.6 GiB (93%)
Language : English
Default : Yes
Forced : No
Audio #1
ID : 2
Format : AC-3
Format/Info : Audio Coding 3
Codec ID : A_AC3
Duration : 1 h 30 min
Bit rate mode : Constant
Bit rate : 192 kb/s
Channel(s) : 2 channels
Channel positions : Front: L R
Sampling rate : 48.0 kHz
Frame rate : 31.250 FPS (1536 SPF)
Bit depth : 16 bits
Compression mode : Lossy
Stream size : 124 MiB (1%)
Title : MVO HDRezka Studio
Language : Russian
Service kind : Complete Main
Default : Yes
Forced : No
Audio #2
ID : 3
Format : DTS
Format/Info : Digital Theater Systems
Format profile : MA / Core
Codec ID : A_DTS
Duration : 1 h 30 min
Bit rate mode : Variable / Constant
Bit rate : 1 472 kb/s / 768 kb/s
Channel(s) : 6 channels
Channel positions : Front: L C R, Side: L R, LFE
Sampling rate : 48.0 kHz
Frame rate : 93.750 FPS (512 SPF)
Bit depth : 16 bits
Compression mode : Lossless / Lossy
Stream size : 943 MiB (6%)
Language : English
Default : No
Forced : No
Text #1
ID : 4
Format : UTF-8
Codec ID : S_TEXT/UTF8
Codec ID/Info : UTF-8 Plain Text
Duration : 1 h 23 min
Bit rate : 21 b/s
Count of elements : 607
Stream size : 13.4 KiB (0%)
Language : English
Default : No
Forced : No
Text #2
ID : 5
Format : UTF-8
Codec ID : S_TEXT/UTF8
Codec ID/Info : UTF-8 Plain Text
Duration : 1 h 23 min
Bit rate : 29 b/s
Count of elements : 562
Stream size : 18.0 KiB (0%)
Language : German
Default : No
Forced : No
Menu
00:00:00.000 : en:
00:03:09.833 : en:
00:14:35.291 : en:
00:25:13.666 : en:
00:36:17.041 : en:
00:42:25.708 : en:
00:47:28.708 : en:
00:53:58.666 : en:
00:59:51.500 : en:
01:10:16.750 : en:
01:17:01.208 : en:
01:26:25.791 : en:

Скриншоты

[korsars.info].t24138.torrent 
Торрент: Зарегистрирован [ 2019-11-19 09:00 ] · 7F627B264D795F7BBB818105921FBEB6F2872F05

Скачать .torrent

Скачать .torrent

74 KB

Статус: проверено
.torrent скачан: 3 раз
Размер: 14,62 GB
Правила
Похожие темы

[Профиль] [ЛС]
Показать сообщения:    
Ответить на тему

Текущее время: 12-Дек 03:14

Часовой пояс: UTC + 4



Вы не можете начинать темы
Вы не можете отвечать на сообщения
Вы не можете редактировать свои сообщения
Вы не можете удалять свои сообщения
Вы не можете голосовать в опросах
Вы не можете прикреплять файлы к сообщениям
Вы можете скачивать файлы
Анализ сайта korsars.info Яндекс.Метрика