4 квартала / 4 Blocks [S01] (2017) BDRip 720p | TVShows

Ответить на тему
Статистика раздачи [Обновить пиров]
Размер:  11,85 GB   |    Зарегистрирован:  10 месяцев 2 дня   |    .torrent скачан:  3 раза
Раздают:  2  [  0 KB/s  ]   Качают:  9  [  0 KB/s  ]   Подробная статистика пиров
 
   
 
 
 
Автор Сообщение

4udaki ®

Оффлайн

Медали


Пол: Мужской

Стаж: 5 лет 10 месяцев

Наличие запрета:

Сообщений: 7970

Откуда: korsars.info

Отдача: 2 Mb/s

Загрузка: 20 Mb/s

Нажми


Скачать Adguard бесплатно

Создавать темы 21-Ноя-2019 01:00

[Цитировать]

4 квартала / 4 Blocks
Страна: Германия
Производство: Wiedemann & Berg Television
Год выпуска: 2017
Жанр: драма, криминал
Продолжительность: 6х ~01:00:00
Режиссеры: Оливер Хиршбигель, Озгюр Йылдырым, Марвин Крен
В ролях: Кида Рамадан, Альмила Багрясик, Вейсель Желен, Марьям Заре, Оливер Мазуччи, Сами Нассер
Описание: Молодой парень Тони тайно готовится сменить карьеру, чтобы наконец-то забыть о мире наркотиков, проституции и отмывания денег. Но когда его родственника задерживают во время очередной облавы, Тони понимает, что он не покинет бандитский клан Берлин-Нойкельн. Это вопрос чести...

Перевод: Профессиональный (многоголосый, закадровый) | TVShows
Субтитры: английские (full)-Качество: WEB-DL 720p
Формат: МКV
Видео кодек: AVC
Аудио кодек: АС3 | ААС
Видео: 1280x720 (16:9), 25.000 fps, MPEG-4 AVC ~4 379 kbps avg
Аудио №1: 48.0 kHz, AC3 Dolby Digital, 3/2 (L,C,R,l,r) + LFE ch, ~384 kbps | RUS / MVO / TVShows
Аудио №2: 48.0 kHz, Advanced Audio Codec Low Complexity, 3/2 (L,C,R,l,r) + LFE ch, ~504 kbps | ENG
Формат субтитров: UTF-8 Plain Text
Дата премьеры (мир): 15 февраля 2017

Media Info

General
Уникальный идентификатор : 195506905809623492965626358906412572097 (0x931542AB1A5F722942AB146D65139DC1)
Полное имя : 4.Blocks.S01E02.720p.TVShows.mkv
Формат : Matroska
Версия формата : Version 4
Размер файла : 2,18 Гбайт
Продолжительность : 59 м. 12 с.
Общий поток : 5270 Кбит/сек
Дата кодирования : UTC 2019-09-27 10:20:12
Программа кодирования : mkvmerge v33.1.0 ('Primrose') 64-bit
Библиотека кодирования : libebml v1.3.7 + libmatroska v1.5.0
Видео
Идентификатор : 1
Формат : AVC
Формат/Информация : Advanced Video Codec
Профиль формата : [email protected]
Настройки формата : CABAC / 2 Ref Frames
Параметр CABAC формата : Да
Параметр RefFrames формата : 2 кадра
Параметр GOP формата : M=1, N=25
Идентификатор кодека : V_MPEG4/ISO/AVC
Продолжительность : 59 м. 12 с.
Битрейт : 4379 Кбит/сек
Ширина : 1280 пикселей
Высота : 720 пикселей
Соотношение сторон : 16:9
Режим частоты кадров : Постоянный
Частота кадров : 25,000 кадров/сек
Цветовое пространство : YUV
Субдискретизация насыщенности : 4:2:0
Битовая глубина : 8 бит
Тип развёртки : Прогрессивная
Бит/(Пиксели*Кадры) : 0.190
Размер потока : 1,81 Гбайт (83%)
Язык : English
Default : Да
Forced : Нет
Аудио #1
Идентификатор : 2
Формат : AC-3
Формат/Информация : Audio Coding 3
Коммерческое название : Dolby Digital
Идентификатор кодека : A_AC3
Продолжительность : 59 м. 11 с.
Вид битрейта : Постоянный
Битрейт : 384 Кбит/сек
Каналы : 6 каналов
ChannelLayout : L R C LFE Ls Rs
Частота : 48,0 КГц
Частота кадров : 31,250 кадров/сек (1536 SPF)
Битовая глубина : 16 бит
Метод сжатия : С потерями
Размер потока : 163 Мбайт (7%)
Заголовок : TVShows
Язык : Russian
Default : Да
Forced : Да
Аудио #2
Идентификатор : 3
Формат : AAC LC
Формат/Информация : Advanced Audio Codec Low Complexity
Идентификатор кодека : A_AAC-2
Продолжительность : 59 м. 11 с.
Битрейт : 504 Кбит/сек
Каналы : 6 каналов
ChannelLayout : C L R Ls Rs LFE
Частота : 48,0 КГц
Частота кадров : 46,875 кадров/сек (1024 SPF)
Метод сжатия : С потерями
Размер потока : 213 Мбайт (10%)
Заголовок : Original
Язык : English
Default : Нет
Forced : Нет
Текст
Идентификатор : 4
Формат : UTF-8
Идентификатор кодека : S_TEXT/UTF8
Идентификатор кодека/Информация : UTF-8 Plain Text
Продолжительность : 57 м. 17 с.
Битрейт : 34 бит/сек
ElementCount : 529
Размер потока : 14,3 Кбайт (0%)
Заголовок : English
Язык : English
Default : Нет
Forced : Нет

Скриншоты

[korsars.info].t24186.torrent 
Торрент: Зарегистрирован [ 2019-11-21 01:00 ] · D5648D491B549414258E7EAAAA7AEA70F492CF3F

Скачать .torrent

Размер .torrent файла 61 KB

Статус: проверено
.torrent скачан: 3 раз
Размер: 11,85 GB
Правила
Похожие темы

[Профиль] [ЛС]

Создавать темы 21-Ноя-2019 08:19 (спустя 7 часов)

Топик был перенесен из форума Американские в форум Европейские
Причина переноса: Правильный форум
4udaki
 
Показать сообщения:    
Ответить на тему

Текущее время: 23-Сен 14:05

Часовой пояс: UTC + 4



Вы не можете начинать темы
Вы не можете отвечать на сообщения
Вы не можете редактировать свои сообщения
Вы не можете удалять свои сообщения
Вы не можете голосовать в опросах
Вы не можете прикреплять файлы к сообщениям
Вы можете скачивать файлы
Анализ сайта korsars.info Яндекс.Метрика