Сельма в городе призраков / Dia de Muertos (2019) WEB-DLRip | iTunes

Ответить на тему
Статистика раздачи [Обновить пиров]
Размер:  1,46 GB   |    Зарегистрирован:  1 месяц 22 дня   |    .torrent скачан:  6 раз
Раздают:  47  [  12 KB/s  ]   Качают:  2  [  0 KB/s  ]   Подробная статистика пиров
 
   
 
 
Автор Сообщение

4udaki ®

Оффлайн



Пол: Мужской

Стаж: 5 лет 3 месяца

Наличие запрета:

Сообщений: 5943

Откуда: korsars.info

Отдача: 2 Mb/s

Загрузка: 20 Mb/s

Нажми

Создавать темы 05-Янв-2020 13:00

[Цитировать]


Информация о фильме
Название: Сельма в городе призраков
Оригинальное название: Dia de Muertos
Год выпуска: 2019
Жанр: Мультфильм, фэнтези, семейный, полнометражный
Режиссер: Карлос Гутиеррез Медрано
В ролях: Фернанда Кастильо, Алан Эстрада, Карло Рота, Мемо Апонте, Джуэлс Джазелль, Дино Андраде, Дани Арто, Сюзана Баллестерос, Диего Осорио, Камила Амезкуа
О фильме: Сельма выросла в любящей приемной семье, но вот уже 16 лет она мечтает встретить своих настоящих родителей. Неожиданно её старшие братья находят древнюю книгу заклинаний, открывающую путь в другие миры. Втроем они отправятся в путешествие в удивительный Город Призраков, чтобы отыскать ключ к прошлому девушки.

Страна: Мексика
Студия: Metacube, Symbosys Technologies
Продолжительность: 01:28:05
Перевод: Дублированный | iTunes
Файл
Качество: WEB-DLRip
Формат: AVI
Видео: 720x304 (2.37:1), 24.000 fps, XviD build 73 ~1973 kbps avg, 0.38 bit/pixel
Аудио: 48 kHz, AC3 Dolby Digital, 3/2 (L,C,R,l,r) + LFE ch, ~384 kbps
Субтитры: Нет

Скриншоты

MediaInfo

Формат : AVI
Формат/Информация : Audio Video Interleave
Размер файла : 1,46 Гбайт
Продолжительность : 1 ч. 28 м.
Общий поток : 2366 Кбит/сек
Название фильма : Сельма в городе призраков_2019_WEB-DLRip
Программа кодирования : VirtualDubMod 1.5.10.3 | (build 2550/release)
Авторское право : порошков
Видео
Идентификатор : 0
Формат : MPEG-4 Visual
Профиль формата : Advanced [email protected]
Настройки формата : BVOP1 / Custom Matrix
Параметр BVOP формата : 1
Параметр QPel формата : Нет
Параметр GMC формата : Без точки перехода
Параметр матрицы формата : Выборочная
Идентификатор кодека : XVID
Идентификатор кодека/Подсказка : XviD
Продолжительность : 1 ч. 28 м.
Битрейт : 1973 Кбит/сек
Ширина : 720 пикселей
Высота : 304 пикселя
Соотношение сторон : 2,35:1
Частота кадров : 24,000 кадра/сек
Цветовое пространство : YUV
Субдискретизация насыщенности : 4:2:0
Битовая глубина : 8 бит
Тип развёртки : Прогрессивная
Метод сжатия : С потерями
Бит/(Пиксели*Кадры) : 0.376
Размер потока : 1,21 Гбайт (83%)
Библиотека кодирования : XviD 73
Аудио
Идентификатор : 1
Формат : AC-3
Формат/Информация : Audio Coding 3
Коммерческое название : Dolby Digital
Идентификатор кодека : 2000
Продолжительность : 1 ч. 28 м.
Вид битрейта : Постоянный
Битрейт : 384 Кбит/сек
Каналы : 6 каналов
ChannelLayout : L R C LFE Ls Rs
Частота : 48,0 КГц
Частота кадров : 31,250 кадров/сек (1536 SPF)
Метод сжатия : С потерями
Размер потока : 242 Мбайт (16%)
Выравнивание : Разделение по промежуткам
Продолжительность промежутка : 42 мс. (1,00 видеокадр)
Время предзагрузки промежутка : 500 мс.
[korsars.info].t25425.torrent 
Торрент: Зарегистрирован [ 2020-01-05 13:00 ] · DBB072FAC713D92A242525487B8C95A1103DC5C5

Скачать .torrent

Скачать .torrent

15 KB

Статус: проверено
.torrent скачан: 6 раз
Размер: 1,46 GB
Правила
tatjanka.bashkirova(05-Янв-20), SummerSun(06-Янв-20)
Похожие темы

[Профиль] [ЛС]
Показать сообщения:    
Ответить на тему

Текущее время: 27-Фев 18:55

Часовой пояс: UTC + 4



Вы не можете начинать темы
Вы не можете отвечать на сообщения
Вы не можете редактировать свои сообщения
Вы не можете удалять свои сообщения
Вы не можете голосовать в опросах
Вы не можете прикреплять файлы к сообщениям
Вы можете скачивать файлы
Анализ сайта korsars.info Яндекс.Метрика