Шестеро вне закона / 6 Underground (2019) WEB-DLRip | КПК | D

Ответить на тему
Статистика раздачи [Обновить пиров]
Размер:  615 MB   |    Зарегистрирован:  9 дней   |    .torrent скачан:  0 раз
Сидов:  144  [  0 KB/s  ]   Личеров:  8  [  0 KB/s  ]   Подробная статистика пиров
 
   
 
 
Автор Сообщение

4udaki ®

Оффлайн



Пол: Мужской

Стаж: 5 лет 2 месяца

Наличие запрета:

Сообщений: 5450

Откуда: korsars.info

Отдача: 2 Mb/s

Загрузка: 20 Mb/s

Нажми

Создавать темы 12-Янв-2020 05:00

[Цитировать]


Информация о фильме
Название: Шестеро вне закона
Оригинальное название: 6 Underground
Год выхода: 2019
Жанр: боевик, триллер
Режиссер: Майкл Бэй
В ролях: Райан Рейнольдс, Адриа Архона, Мелани Лоран, Бен Харди, Дэйв Франко, Себастьян Роше, Ситара Аттайе, Кори Хоукинс, Мануэль Рульфо, Джеймс Мюррэй, Лайор Раз, Пейман Моаади, Юрий Колокольников
О фильме:
Шесть миллиардеров фальсифицируют собственные смерти и создают отряд мстителей, чтобы самостоятельно вершить правосудие.

Рейтинг MPAA: R - Лицам до 17 лет обязательно присутствие взрослого
Страна: США
Студия: Bay Films, Skydance Media
Продолжительность: 02:08:52
Перевод: Дублированный | Пифагор по заказу Netflix
Файл
Формат: MP4
Качество: WEB-DLRip (исх. WEB-DL 1080p)
Видео: AVC, 640x266 (2.40:1) at 23.976 fps, 600 kbps
Аудио: AAC LC SBR (HE-AAC), 48.0 KHz, 2 ch, ~64 kbps
Субтитры: Русские (forced) отдельным файлом (SRT)
Семпл

x264 log / MediaInfo

x264 [info]: frame I:1733 Avg QP:20.77 size: 23037
x264 [info]: frame P:53892 Avg QP:26.44 size: 5877
x264 [info]: frame B:129765 Avg QP:29.79 size: 1722
x264 [info]: consecutive B-frames: 6.6% 7.2% 15.9% 31.6% 15.5% 17.3% 2.1% 0.8% 0.7% 0.3% 0.3% 0.6% 0.2% 0.2% 0.3% 0.2% 0.4%
Complete name : 6.Underground.2019.WEB-DLRip.mp4
Format : MPEG-4
Format profile : Base Media
Codec ID : isom (isom)
File size : 615 MiB
Duration : 2 h 8 min
Overall bit rate mode : Variable
Overall bit rate : 667 kb/s
Encoded date : UTC 2019-12-13 08:22:25
Tagged date : UTC 2019-12-13 08:22:25
Writing application : Yamb 2.1.0.0 [http://yamb.unite-video.com]
Video
ID : 1
Format : AVC
Format/Info : Advanced Video Codec
Format profile : [email protected]
Format settings : CABAC / 12 Ref Frames
Format settings, CABAC : Yes
Format settings, RefFrames : 12 frames
Codec ID : avc1
Codec ID/Info : Advanced Video Coding
Duration : 2 h 8 min
Bit rate : 600 kb/s
Maximum bit rate : 3 584 kb/s
Width : 640 pixels
Height : 266 pixels
Display aspect ratio : 2.40:1
Frame rate mode : Constant
Frame rate : 23.976 (24000/1001) FPS
Color space : YUV
Chroma subsampling : 4:2:0
Bit depth : 8 bits
Scan type : Progressive
Bits/(Pixel*Frame) : 0.147
Stream size : 553 MiB (90%)
Writing library : x264 core 133 r2334 a3ac64b
Encoding settings : cabac=1 / ref=12 / deblock=1:-3:-3 / analyse=0x3:0x113 / me=umh / subme=10 / psy=1 / psy_rd=1.00:0.00 / mixed_ref=1 / me_range=24 / chroma_me=1 / trellis=2 / 8x8dct=1 / cqm=0 / deadzone=21,11 / fast_pskip=0 / chroma_qp_offset=-2 / threads=6 / lookahead_threads=1 / sliced_threads=0 / nr=0 / decimate=1 / interlaced=0 / bluray_compat=0 / constrained_intra=0 / bframes=16 / b_pyramid=2 / b_adapt=2 / b_bias=0 / direct=3 / weightb=1 / open_gop=0 / weightp=2 / keyint=250 / keyint_min=23 / scenecut=40 / intra_refresh=0 / rc_lookahead=60 / rc=2pass / mbtree=1 / bitrate=600 / ratetol=1.0 / qcomp=0.50 / qpmin=0 / qpmax=69 / qpstep=4 / cplxblur=20.0 / qblur=0.5 / ip_ratio=1.40 / aq=1:1.00
Language : English
Encoded date : UTC 2019-12-14 06:53:39
Tagged date : UTC 2019-12-13 08:23:47
Codec configuration box : avcC
Audio
ID : 2
Format : AAC LC SBR
Format/Info : Advanced Audio Codec Low Complexity with Spectral Band Replication
Commercial name : HE-AAC
Format settings : Explicit
Codec ID : mp4a-40-2
Duration : 2 h 8 min
Bit rate mode : Variable
Bit rate : 63.7 kb/s
Maximum bit rate : 134 kb/s
Channel(s) : 2 channels
Channel layout : L R
Sampling rate : 48.0 kHz
Frame rate : 23.438 FPS (2048 SPF)
Compression mode : Lossy
Stream size : 58.7 MiB (10%)
Title : DUB - Pifagor
Language : Russian
Encoded date : UTC 2019-12-13 08:23:42
Tagged date : UTC 2019-12-13 08:23:47

Скриншоты

[korsars.info].t25584.torrent 
Торрент: Зарегистрирован [ 2020-01-12 05:00 ] · 565D3F7153B6A44397D4928358103E55B6708568

Скачать .torrent

Скачать .torrent

13 KB

Статус: проверено
.torrent скачан: 0 раз
Размер: 615 MB
Правила
Похожие темы

[Профиль] [ЛС]
Показать сообщения:    
Ответить на тему

Текущее время: 21-Янв 19:34

Часовой пояс: UTC + 4



Вы не можете начинать темы
Вы не можете отвечать на сообщения
Вы не можете редактировать свои сообщения
Вы не можете удалять свои сообщения
Вы не можете голосовать в опросах
Вы не можете прикреплять файлы к сообщениям
Вы можете скачивать файлы
Анализ сайта korsars.info Яндекс.Метрика