Город предсказательниц / Urara Meirochou [S01] (2017) BDRip от KORSARS.INFO | L2 | SHIZA Project

Ответить на тему
Статистика раздачи [Обновить пиров]
Размер:  4,11 GB   |    Зарегистрирован:  6 месяцев 27 дней   |    .torrent скачан:  1 раз

Полного источника не было: Никогда

Качают:  2  [  0 KB/s  ]   Подробная статистика пиров
 
   
 
 
 
Автор Сообщение

4udaki ®

Оффлайн

Медали


Пол: Мужской

Стаж: 5 лет 9 месяцев

Наличие запрета:

Сообщений: 7670

Откуда: korsars.info

Отдача: 2 Mb/s

Загрузка: 20 Mb/s

Нажми


Скачать Adguard бесплатно

Создавать темы 12-Янв-2020 09:00

[Цитировать]

Информация о фильме
Название: Город предсказательниц
Оригинальное название: Urara Meirochou
Год выхода: 2017
Жанр: повседневность, комедия
Режиссер: Судзуки Ёхэй
Художник: Окумура Ясухиро
Снято по манге: Urara Meirochou
В ролях: Харада Саяка, Хондо Каэдэ, Кубо Юрика, Ёсимура Харука
О фильме:
Мэйро-мати (рус. «Город-лабиринт») — город предсказательниц. Здесь находится магазин «Урара», куда приходят девушки со всех уголков страны, чтобы стать настоящими провидицами.
Тия, выросшая в горах, прибывает в Мэйро-мати с определённой целью. Но какой? Что бы там ни было, вскоре девушка знакомится с жителями волшебного городка: всегда серьёзной Кон, любительницей западной культуры Коумэ и застенчивой Ноно.
Их весёлые дни совместной жизни в качестве предсказательниц начинаются!

Страна: Япония
Студия: J.C. Staff
Продолжительность: 12x ~00:24:00
Перевод: Любительский (двухголосый, закадровый) SHIZA Project
Файл
Качество: BDRip [Исх. BDRemux 1080p by antiBILLotic]
Формат: Avi
Видео кодек: XviD
Аудио кодек: AC3
Видео: 720x400 (16:9), 23.976 fps, 1621 Кбит/сек (0.235 bit/pixel)
Аудио #1: AC-3, 48,0 КГц, 2 ch, 192 Кбит/сек, CBR | | Озвучка от SHIZA Project
Аудио #2: AC-3, 48,0 КГц, 2 ch, 192 Кбит/сек, CBR | | Орининал
Русские Субтитры: Есть (YakuSub Studio) [1-11]; Undokaktyz [12]-

MediaInfo

Общее
Полное имя : D:ОнимеГород.Предсказательниц.2017.S01.SHIZA.BDRip.DeadmauvladГород.Предсказательниц.2017.SHIZA.BDRip.Deadmauvlad.S01x01.avi
Формат : AVI
Формат/Информация : Audio Video Interleave
Размер файла : 350 Мбайт
Продолжительность : 24 м. 12 с.
Общий поток : 2019 Кбит/сек
Название фильма : Город.Предсказательниц.2017.SHIZA.BDRip.Deadmauvlad.S01x01
Режиссёр : Encoder by Deadmauvlad
Жанр : Комедия , Повседневность
Программа кодирования : VirtualDubMod 1.5.10.3 | www.virtualdub-fr.org || (build 2550/release)
Формат оригинала/Имя : Anime
Авторское право : Encoder by Deadmauvlad
Примечание : Encoder by Deadmauvlad
Видео
Идентификатор : 0
Формат : MPEG-4 Visual
Профиль формата : Advanced [email protected]
Настройки формата : BVOP1 / Custom Matrix
Параметр BVOP формата : 1
Параметр QPel формата : Нет
Параметр GMC формата : Без точки перехода
Параметр матрицы формата : Выборочная
Идентификатор кодека : XVID
Идентификатор кодека/Подсказка : XviD
Продолжительность : 24 м. 12 с.
Битрейт : 1621 Кбит/сек
Ширина : 720 пикселей
Высота : 400 пикселей
Соотношение сторон : 16:9
Частота кадров : 23,976 (24000/1001) кадра/сек
Цветовое пространство : YUV
Субдискретизация насыщенности : 4:2:0
Битовая глубина : 8 бит
Тип развёртки : Прогрессивная
Метод сжатия : С потерями
Бит/(Пиксели*Кадры) : 0.235
Размер потока : 281 Мбайт (80%)
Библиотека кодирования : XviD 73
Аудио #1
Идентификатор : 1
Формат : AC-3
Формат/Информация : Audio Coding 3
Коммерческое название : Dolby Digital
Идентификатор кодека : 2000
Продолжительность : 24 м. 12 с.
Вид битрейта : Постоянный
Битрейт : 192 Кбит/сек
Каналы : 2 канала
Channel layout : L R
Частота : 48,0 КГц
Частота кадров : 31,250 кадров/сек (1536 SPF)
Битовая глубина : 16 бит
Метод сжатия : С потерями
Размер потока : 33,2 Мбайт (10%)
Выравнивание : Разделение по промежуткам
Продолжительность промежутка : 42 мс. (1,00 видеокадр)
Время предзагрузки промежутка : 500 мс.
Аудио #2
Идентификатор : 2
Формат : AC-3
Формат/Информация : Audio Coding 3
Коммерческое название : Dolby Digital
Идентификатор кодека : 2000
Продолжительность : 24 м. 12 с.
Вид битрейта : Постоянный
Битрейт : 192 Кбит/сек
Каналы : 2 канала
Channel layout : L R
Частота : 48,0 КГц
Частота кадров : 31,250 кадров/сек (1536 SPF)
Битовая глубина : 16 бит
Метод сжатия : С потерями
Размер потока : 33,2 Мбайт (10%)
Выравнивание : Разделение по промежуткам
Продолжительность промежутка : 42 мс. (1,00 видеокадр)
Время предзагрузки промежутка : 500 мс.
-

Список эпизодов

01. The Fortune-Teller Girl Sometimes Shows Her Stomach
02.The Things We Search for and Our Dreams Are Sometimes Sweet!
03. Our Friends and Colleagues Are Sometimes Rivals!
04. Good and Bad Things Are Sometimes Ticklish
05. Brides and Gods Sometimes Sneeze
06. Love and Pursuit Sometimes Go "Good Girl, Good Girl!
07. Invocations and Witches Sometimes Have to Be Ready
08. Forbidden Things Are Sometimes Totally Naked
09. Mothers and Knowledge Are Sometimes for You
10. Four Girls and the Ranking Exam Are Sometimes a Trial
11. Chiya and the Dark Sometimes Cry
12. Baths and Celebrations Sometimes Have Smiles!
-Релиз/автор рипов by DeadmauvladРелиз Без Рекламы √
[korsars.info].t25587.torrent 
Торрент: Зарегистрирован [ 2020-01-12 09:00 ] · B785A2E7AC5B49B9028E166C69679D0A92BEF953

Скачать .torrent

Размер .torrent файла 9 KB

Статус: проверено
.torrent скачан: 1 раз
Размер: 4,11 GB
Правила
Похожие темы

[Профиль] [ЛС]
Показать сообщения:    
Ответить на тему

Текущее время: 08-Авг 16:06

Часовой пояс: UTC + 4



Вы не можете начинать темы
Вы не можете отвечать на сообщения
Вы не можете редактировать свои сообщения
Вы не можете удалять свои сообщения
Вы не можете голосовать в опросах
Вы не можете прикреплять файлы к сообщениям
Вы можете скачивать файлы
Анализ сайта korsars.info Яндекс.Метрика