Прикуп / The Take [TV Mini-Series] (2009) HDRip-AVC | A

Ответить на тему
Статистика раздачи [Обновить пиров]
Размер:  1,45 GB   |    Зарегистрирован:  15 дней   |    .torrent скачан:  0 раз
Раздают:  8  [  0 KB/s  ]   Качают:  11  [  0 KB/s  ]   Подробная статистика пиров
 
   
 
 
Автор Сообщение

4udaki ®

Оффлайн



Пол: Мужской

Стаж: 5 лет 2 месяца

Наличие запрета:

Сообщений: 5548

Откуда: korsars.info

Отдача: 2 Mb/s

Загрузка: 20 Mb/s

Нажми

Создавать темы 12-Янв-2020 09:00

[Цитировать]


Информация о фильме
Название: Прикуп
Оригинальное название: The Take
Год выхода: 2009
Жанр: Драма, криминал, триллер
Режиссер: Дэвид Друри
В ролях: Шон Эванс, Том Харди, Шарлотта Райли, Кирстон Вэрэйнг, Марго Лейкестер, Брайан Кокс, Джейн Вуд, Стив Николсон, Джон Эштон, Меган Джосса Аннетт Келли, Сара Стюарт, Макдара Джойс, Сэмми Уильямс, Дженни Кэвэна, Сэм Винчент, Николас Дэй, Гари Мерфи, Марк Хубермэн, Элли О’Кейн О’Рейли, Дэвид Скофилд, Эмма Пайк, Джэми МакКенна, Хейли Уордл, Имон Джехеган, Дебора Вайсман, Стефен Д’Арси, Эммет Кирван, Челси О’Тул, Ниам Шоу, Дин Бардини, Рита Эвелин Смит, Марк Фиш
О фильме:
Фредди Джексон только что вышел из тюрьмы. Он отсидел срок, наладил нужные связи и теперь готов вместе со своим преданным кузеном Джимми бросить вызов всему миру, не останавливаясь ни перед кем и ни перед чем.

Страна: Великобритания
Студия: Company Pictures, Element Pictures, Irish Film Board
Продолжительность: 02:53:05
Перевод: Авторский (одноголосый, закадровый) Ю.Сербин
Субтитры: Russian
Файл
Формат: Matroska
Качество: HDRip-AVC
Видео: 736x414 at 23.976 fps, x264, ~1120 kbps, 0.147 bpp
Аудио: AAC, 2 ch, ~80 kbps - | Русский | - AVO
Формат субтитров: softsub (SRT)
***Релиз от: -=DoMiNo=-

M/I

x264 [info]: frame I:2090 Avg QP:15.91 size: 40083
x264 [info]: frame P:57990 Avg QP:19.25 size: 12527
x264 [info]: frame B:199509 Avg QP:20.49 size: 3225
x264 [info]: consecutive B-frames: 2.2% 3.2% 9.6% 20.7% 15.7% 39.6% 6.1% 1.7% 0.5% 0.3% 0.1% 0.1% 0.2%
General
Unique ID : 67738132479142495742282560081134758401 (0x32F5E3C8166F3A909087C7C898F62A01)
Complete name : S:Прикуп.(2009).HDRip-AVC.[-=DoMiNo=-].mkv
Format : Matroska
Format version : Version 4
File size : 1.45 GiB
Duration : 2 h 53 min
Overall bit rate : 1 201 kb/s
Movie name : Прикуп.(2009).HDRip-AVC.[-=DoMiNo=-]
Encoded date : UTC 2020-01-10 06:35:37
Writing application : mkvmerge v42.0.0 ('Overtime') 64-bit
Writing library : libebml v1.3.10 + libmatroska v1.5.2
Attachments : poster.jpg / poster 2.jpg
Video
ID : 1
Format : AVC
Format/Info : Advanced Video Codec
Format profile : [email protected]
Format settings : CABAC / 12 Ref Frames
Format settings, CABAC : Yes
Format settings, Reference : 12 frames
Codec ID : V_MPEG4/ISO/AVC
Duration : 2 h 53 min
Bit rate : 1 120 kb/s
Width : 736 pixels
Height : 414 pixels
Display aspect ratio : 16:9
Frame rate mode : Constant
Frame rate : 25.000 FPS
Color space : YUV
Chroma subsampling : 4:2:0
Bit depth : 8 bits
Scan type : Progressive
Bits/(Pixel*Frame) : 0.147
Stream size : 1.35 GiB (93%)
Title : RIP_BY_-=DoMiNo=-
Writing library : x264 core 152 r2851kMod ba24899
Encoding settings : cabac=1 / ref=12 / deblock=1:-3:-3 / analyse=0x3:0x133 / me=umh / subme=11 / psy=1 / fade_compensate=0.00 / psy_rd=1.00:0.12 / mixed_ref=1 / me_range=32 / chroma_me=1 / trellis=2 / 8x8dct=1 / cqm=0 / deadzone=21,11 / fast_pskip=0 / chroma_qp_offset=-3 / threads=6 / lookahead_threads=1 / sliced_threads=0 / nr=0 / decimate=0 / interlaced=0 / bluray_compat=0 / constrained_intra=0 / bframes=12 / b_pyramid=2 / b_adapt=2 / b_bias=0 / direct=3 / weightb=1 / open_gop=0 / weightp=2 / keyint=250 / keyint_min=25 / scenecut=40 / intra_refresh=0 / rc=2pass / mbtree=0 / bitrate=1120 / ratetol=1.0 / qcomp=0.60 / qpmin=0 / qpmax=69 / qpstep=4 / cplxblur=20.0 / qblur=0.5 / ip_ratio=1.40 / pb_ratio=1.30 / aq=1:1.00
Language : English
Default : Yes
Forced : No
Audio
ID : 2
Format : AAC LC SBR
Format/Info : Advanced Audio Codec Low Complexity with Spectral Band Replication
Commercial name : HE-AAC
Format settings : Explicit
Codec ID : A_AAC-2
Duration : 2 h 53 min
Bit rate : 78.7 kb/s
Channel(s) : 2 channels
Channel layout : L R
Sampling rate : 48.0 kHz
Frame rate : 23.438 FPS (2048 SPF)
Compression mode : Lossy
Stream size : 97.4 MiB (7%)
Title : AVO_[Ю.Сербин]
Language : Russian
Default : Yes
Forced : No
Text
ID : 3
Format : UTF-8
Codec ID : S_TEXT/UTF8
Codec ID/Info : UTF-8 Plain Text
Duration : 2 h 52 min
Bit rate : 72 b/s
Count of elements : 1877
Stream size : 92.1 KiB (0%)
Language : Russian
Default : No
Forced : No
Menu
00:00:00.000 : en:00:00:00.000
00:13:57.040 : en:00:13:57.040
00:28:26.280 : en:00:28:26.280
00:41:09.040 : en:00:41:09.040
00:55:00.400 : en:00:55:00.400
01:10:10.680 : en:01:10:10.680
01:25:50.320 : en:01:25:50.320
01:36:07.280 : en:01:36:07.280
01:51:21.680 : en:01:51:21.680
02:08:08.680 : en:02:08:08.680
02:23:33.560 : en:02:23:33.560
02:39:44.120 : en:02:39:44.120
[korsars.info].t25589.torrent 
Торрент: Зарегистрирован [ 2020-01-12 09:00 ] · 8130ACB6BC6A286D4C4E2AD0412C80088EE16FF5

Скачать .torrent

Скачать .torrent

59 KB

Статус: проверено
.torrent скачан: 0 раз
Размер: 1,45 GB
Правила
Похожие темы

[Профиль] [ЛС]
Показать сообщения:    
Ответить на тему

Текущее время: 27-Янв 14:34

Часовой пояс: UTC + 4



Вы не можете начинать темы
Вы не можете отвечать на сообщения
Вы не можете редактировать свои сообщения
Вы не можете удалять свои сообщения
Вы не можете голосовать в опросах
Вы не можете прикреплять файлы к сообщениям
Вы можете скачивать файлы
Анализ сайта korsars.info Яндекс.Метрика