Подруга / Рафики / Rafiki (2018) WEB-DLRip | L2

Ответить на тему
Статистика раздачи [Обновить пиров]
Размер:  735 MB   |    Зарегистрирован:  9 дней   |    .torrent скачан:  0 раз
Сидов:  2  [  0 KB/s  ]   Личеров:  2  [  0 KB/s  ]   Подробная статистика пиров
 
   
 
 
 
Автор Сообщение

4udaki ®

Оффлайн



Пол: Мужской

Стаж: 5 лет 2 месяца

Наличие запрета:

Сообщений: 5450

Откуда: korsars.info

Отдача: 2 Mb/s

Загрузка: 20 Mb/s

Нажми

Создавать темы 12-Янв-2020 13:00

[Цитировать]

Информация о фильме
Название: Подруга / Рафики
Оригинальное название: Rafiki
Год выхода: 2018
Жанр: драма, мелодрама, лесби-тема
Режиссер: Ванури Кахиу / Wanuri Kahiu
В ролях: Саманта Мугация (Кена), Шейла Муньива (Зики), Невилл Мисати, Найс Гитинджи, Чарли Каруми, Патрисия Амира, Джимми Гату, Мутони Гатеча, Виталис Ваверу, Меллен Аура, Гитаэ Нджогу, Нини Вакера
О фильме:
Две кенийские девушки Кена и Зики живут в большом городе. Их отцы активно участвуют в общественной жизни, принадлежа к противоположным политическим лагерям. Несмотря на это, девушки становятся близкими подругами. Только друг с другом они могут поделиться своими мечтами и найти поддержку в сложных ситуациях. Вскоре между ними возникает и более сильное чувство. Об этом узнают родители. Кенийское общество консервативно, поэтому реакция родителей резко негативная, и они пытаются разлучить девушек.
Награды:
Chicago International Film Festival, Чикаго, США, 2018:
Победитель - Silver Q-Hugo (Ванури Кахиу)
Lucas - International Festival of Films for Children and Young People, Франкфурт-на-Майне, Германия, 2018:
Победитель - Награда за преодоление границ и Премия молодежи (Ванури Кахиу)
Carthage Film Festival (Карфаген), Тунис, Тунис, 2018:
Победитель - Лучшая актриса (Саманта Мугация), Лучшая музыка
Dublin International Film Festival, Дублин, Ирландия, 2019:
Победитель - Young Programmers Choice Award (Ванури Кахиу)
Bratislava International Film Festival, Братислава, Словакия. 2018:
Приз зрительских симпатий
Minneapolis St. Paul International Film Festival, Миннеаполис, США, 2019:
Приз зрительских симпатий
LesGaiCineMad, Madrid International LGBT Film Festival, Мадрид, Испания, 2018:
Победитель - Лучший художественный фильм, Лучшая актриса (Саманта Мугация)
Milan International Lesbian and Gay Film Festival, Милан, Италия, 2019:
Победитель - Гран-при, Лучший художественный фильм
TWIST: Seattle Queer Film Festival, Сиэтл, США, 2018:
Победитель - Лучший художественный фильм, Приз зрительских симпатий


Страна: Кения, ЮАР, Франция, Германия, Великобритания, Нидерланды, Норвегия, Ливан
Продолжительность: 01:18:50
Перевод: Любительский двухголосый закадровый - Колобок
Файл
Качество: WEB-DLRip
Формат: AVI
Видео: XviD; 720 x 304 (2,35:1); 23,976 кадров/сек; 1040 Кбит/сек
Аудио 1: MP3; 48 КГц; 128 Кбит/сек; 2 канала; L2 (Русский, Колобок)
Аудио 2: MP3; 44,1 КГц; 128 Кбит/сек; 2 канала; Оригинал (Английский, Суахили)
Субтитры: французские и китайские неотключаемые
Семпл

MediaInfo:

Общее
Формат : AVI
Формат/Информация : Audio Video Interleave
Размер файла : 735 Мбайт
Продолжительность : 1 ч. 18 м.
Общий поток : 1303 Кбит/сек
Видео
Идентификатор : 0
Формат : MPEG-4 Visual
Профиль формата : Advanced [email protected]
Настройки формата : BVOP2
Параметр BVOP формата : 2
Параметр QPel формата : Нет
Параметр GMC формата : Без точки перехода
Параметр матрицы формата : Default (H.263)
Идентификатор кодека : XVID
Идентификатор кодека/Подсказка : XviD
Продолжительность : 1 ч. 18 м.
Битрейт : 1040 Кбит/сек
Ширина : 720 пикселей
Высота : 304 пикселя
Соотношение сторон : 2,35:1
Частота кадров : 23,976 (24000/1001) кадра/сек
Цветовое пространство : YUV
Субдискретизация насыщенности : 4:2:0
Битовая глубина : 8 бит
Тип развёртки : Прогрессивная
Метод сжатия : С потерями
Бит/(Пиксели*Кадры) : 0.198
Размер потока : 586 Мбайт (80%)
Библиотека кодирования : XviD 67
Аудио #1
Идентификатор : 1
Формат : MPEG Audio
Версия формата : Version 1
Профиль формата : Layer 3
Настройки формата : Joint stereo / MS Stereo
Идентификатор кодека : 55
Идентификатор кодека/Подсказка : MP3
Продолжительность : 1 ч. 18 м.
Вид битрейта : Постоянный
Битрейт : 128 Кбит/сек
Каналы : 2 канала
Частота : 48,0 КГц
Частота кадров : 41,667 кадра/сек (1152 SPF)
Метод сжатия : С потерями
Размер потока : 72,2 Мбайт (10%)
Выравнивание : Соединение по промежуткам
Продолжительность промежутка : 167 мс. (4,00 видеокадра)
Время предзагрузки промежутка : 216 мс.
Заголовок : Колобок
Библиотека кодирования : LAME3.100
Настройки программы : -m j -V 4 -q 2 -lowpass 17 -b 128
Аудио #2
Идентификатор : 2
Формат : MPEG Audio
Версия формата : Version 1
Профиль формата : Layer 3
Настройки формата : Joint stereo / MS Stereo
Идентификатор кодека : 55
Идентификатор кодека/Подсказка : MP3
Продолжительность : 1 ч. 18 м.
Вид битрейта : Постоянный
Битрейт : 128 Кбит/сек
Каналы : 2 канала
Частота : 44,1 КГц
Частота кадров : 38,281 кадров/сек (1152 SPF)
Метод сжатия : С потерями
Размер потока : 72,2 Мбайт (10%)
Выравнивание : Соединение по промежуткам
Продолжительность промежутка : 167 мс. (4,00 видеокадра)
Время предзагрузки промежутка : 208 мс.
Заголовок : English
Библиотека кодирования : LAME3.100
Настройки программы : -m j -V 4 -q 2 -lowpass 17 -b 128

Скриншоты

[korsars.info].t25593.torrent 
Торрент: Зарегистрирован [ 2020-01-12 13:00 ] · D5B1F9DBCB3A33B7CE98A78F93F32A86062E6F29

Скачать .torrent

Скачать .torrent

15 KB

Статус: проверено
.torrent скачан: 0 раз
Размер: 735 MB
Правила

[Профиль] [ЛС]
Показать сообщения:    
Ответить на тему

Текущее время: 21-Янв 19:37

Часовой пояс: UTC + 4



Вы не можете начинать темы
Вы не можете отвечать на сообщения
Вы не можете редактировать свои сообщения
Вы не можете удалять свои сообщения
Вы не можете голосовать в опросах
Вы не можете прикреплять файлы к сообщениям
Вы можете скачивать файлы
Анализ сайта korsars.info Яндекс.Метрика