Джей в Голливуде / Madness in the Method (2019) WEB-DL 1080p | D, A

Ответить на тему
Статистика раздачи [Обновить пиров]
Размер:  7 GB   |    Зарегистрирован:  15 дней   |    .torrent скачан:  0 раз
Раздают:  29  [  0 KB/s  ]   Качают:  3  [  0 KB/s  ]   Подробная статистика пиров
 
   
 
 
Автор Сообщение

4udaki ®

Оффлайн



Пол: Мужской

Стаж: 5 лет 2 месяца

Наличие запрета:

Сообщений: 5548

Откуда: korsars.info

Отдача: 2 Mb/s

Загрузка: 20 Mb/s

Нажми

Создавать темы 12-Янв-2020 13:00

[Цитировать]

- Год выпуска: 2019
Страна: США
Жанр: комедия, криминал
Продолжительность: 01:39:16
Перевод:
Профессиональный (полное дублирование) - iTunes
Авторский (одноголосый закадровый) - М. Яроцкий
Субтитры: Русские(Full), Английские (Full, SDH)
Режиссеры: Джейсон Мьюз / Jason Mewes
В ролях: Джейсон Мьюз, Кевин Смит, Джина Карано, Джейми Камиль, Винни Джонс, Дэнни Трехо, Мики Гуч младший, Стэн Ли, Брайан О'Халлоран и др.
Описание: В альтернативной реальности кинозвезда Кевин Смит, известный как Молчаливый Боб, раскрывает своему приятелю Джейсону Мьюзу секрет успеха в Голливуде, чтобы тот избавился от вечного амплуа комедианта. Проблемы начинаются, когда Джейсон слишком рьяно следует его методике, доводя себя и всех вокруг до безумия.- -Качество: WEB-DL 1080p
Формат: MKV
Видео кодек: H264
Аудио кодек: AC3
Видео: MPEG4 Video (H264) 1920x800 23.98fps 8.491 Mbps
Аудио 1: 48 kHz, AC3, 3/2 (L,C,R,l,r) + LFE ch, ~384.00 kbps avg | Russian | iTunes
Аудио 2: 48 kHz, AC3, 3/2 (L,C,R,l,r) + LFE ch, ~640.00 kbps avg | Russian | Михаил Яроцкий
Аудио 3: 48 kHz, AC3, 3/2 (L,C,R,l,r) + LFE ch, ~384.00 kbps avg | English | оригинал-

Скриншоты

-

MediaInfo

General
Format : Matroska
File size : 7.00 GiB
Duration : 1h 39mn
Overall bit rate : 10.1 Mbps
Encoded date : UTC 2019-12-17 18:08:32
Writing application : mkvmerge v2.9.7 ('Tenderness') built on Jul 1 2009 18:43:35
Writing library : libebml v0.7.7 + libmatroska v0.8.1
Video
ID : 1
Format : AVC
Format/Info : Advanced Video Codec
Format profile : [email protected]
Format settings, CABAC : Yes
Format settings, ReFrames : 4 frames
Muxing mode : Container [email protected]
Codec ID : V_MPEG4/ISO/AVC
Duration : 1h 39mn
Bit rate : 8 491 Kbps
Width : 1 920 pixels
Height : 800 pixels
Display aspect ratio : 2.40:1
Frame rate : 23.976 fps
Resolution : 24 bits
Colorimetry : 4:2:0
Scan type : Progressive
Bits/(Pixel*Frame) : 0.231
Stream size : 5.88 GiB (84%)
Language : English
colour_primaries : BT.709-5, BT.1361, IEC 61966-2-4, SMPTE RP177
transfer_characteristics : BT.709-5, BT.1361
matrix_coefficients : BT.709-5, BT.1361, IEC 61966-2-4 709, SMPTE RP177
Audio #1
ID : 2
Format : AC-3
Format/Info : Audio Coding 3
Codec ID : A_AC3
Duration : 1h 39mn
Bit rate mode : Constant
Bit rate : 384 Kbps
Channel(s) : 6 channels
Channel positions : Front: L C R, Surround: L R, LFE
Sampling rate : 48.0 KHz
Stream size : 273 MiB (4%)
Title : dub iTunes
Language : Russian
Audio #2
ID : 3
Format : AC-3
Format/Info : Audio Coding 3
Codec ID : A_AC3
Duration : 1h 39mn
Bit rate mode : Constant
Bit rate : 640 Kbps
Channel(s) : 6 channels
Channel positions : Front: L C R, Surround: L R, LFE
Sampling rate : 48.0 KHz
Stream size : 454 MiB (6%)
Title : AVO М. Яроцкий
Language : Russian
Audio #3
ID : 4
Format : AC-3
Format/Info : Audio Coding 3
Codec ID : A_AC3
Duration : 1h 39mn
Bit rate mode : Constant
Bit rate : 384 Kbps
Channel(s) : 6 channels
Channel positions : Front: L C R, Surround: L R, LFE
Sampling rate : 48.0 KHz
Stream size : 273 MiB (4%)
Language : English
Text #1
ID : 5
Format : UTF-8
Codec ID : S_TEXT/UTF8
Codec ID/Info : UTF-8 Plain Text
Title : iTunes
Language : Russian
Text #2
ID : 6
Format : UTF-8
Codec ID : S_TEXT/UTF8
Codec ID/Info : UTF-8 Plain Text
Language : English
Text #3
ID : 7
Format : UTF-8
Codec ID : S_TEXT/UTF8
Codec ID/Info : UTF-8 Plain Text
Title : SDH
Language : English
-
[korsars.info].t25594.torrent 
Торрент: Зарегистрирован [ 2020-01-12 13:00 ] · 26DB64DE0BCF26805A29605AAD9E49634B576D11

Скачать .torrent

Скачать .torrent

36 KB

Статус: проверено
.torrent скачан: 0 раз
Размер: 7 GB
Правила
Похожие темы

[Профиль] [ЛС]
Показать сообщения:    
Ответить на тему

Текущее время: 27-Янв 14:32

Часовой пояс: UTC + 4



Вы не можете начинать темы
Вы не можете отвечать на сообщения
Вы не можете редактировать свои сообщения
Вы не можете удалять свои сообщения
Вы не можете голосовать в опросах
Вы не можете прикреплять файлы к сообщениям
Вы можете скачивать файлы
Анализ сайта korsars.info Яндекс.Метрика