Навстречу тьме / Into the Dark [02х01-04 из 10] (2019-2020) WEBRip 1080p | TVShows

Ответить на тему
Статистика раздачи [Обновить пиров]
Размер:  9,53 GB   |    Зарегистрирован:  14 дней   |    .torrent скачан:  1 раз

Полного источника не было: Никогда

Качают:  1  [  0 KB/s  ]   Подробная статистика пиров
 
   
 
 
 
Автор Сообщение

4udaki ®

Оффлайн



Пол: Мужской

Стаж: 5 лет 2 месяца

Наличие запрета:

Сообщений: 5548

Откуда: korsars.info

Отдача: 2 Mb/s

Загрузка: 20 Mb/s

Нажми

Создавать темы 12-Янв-2020 17:00

[Цитировать]

Навстречу тьме / Into the Dark
Страна: США
Производство: Blumhouse Television
Год выпуска: 2019-2020
Жанр: ужасы, триллер
Продолжительность: х ~01:20:00
Режиссеры: Пол Дэвис, Картер Смит, Маркус Данстэн, Чарльз Худ
В ролях: Аделаида Кейн, Джорджи Флорес, Пейдж МакГи, Рейн Эдвардс, Керр Смит, Кортни Хенгелер, Молли Хэйгэн, Натали Холл, Скотт Эванс
Описание: Антология ужасов, каждый эпизод которой связан с известным праздником...

Перевод: Профессиональный (многоголосый, закадровый) | TVShows
Субтитры: английские (full)-Качество: WEBRip 1080p
Формат: МКV
Видео кодек: AVC
Аудио кодек: АС3 | Е-АС3
Видео: 1920x1080 (16:9), 23.976 fps, MPEG-4 AVC ~2 428 kbps avg
Аудио №1: 48.0 kHz, AC3 Dolby Digital, 3/2 (L,C,R,l,r) + LFE ch, ~384 kbps | RUS / MVO
Аудио №2: 48.0 kHz, Enhanced Audio Coding 3, 3/2 (L,C,R,l,r) + LFE ch, ~256 kbps | ENG
Формат субтитров: UTF-8 Plain Text
Дата премьеры (мир): 4 октября 2019

Media Info

General
Unique ID : 205221638919478247700512948335149024982 (0x9A643FFD9556480DAAAA7C87807F86D6)
Complete name : Into.The.Dark.S02E01.1080p.TVShows.mkv
Format : Matroska
Format version : Version 4 / Version 2
File size : 1.72 GiB
Duration : 1 h 20 min
Overall bit rate : 3 071 kb/s
Encoded date : UTC 2019-10-10 08:21:05
Writing application : mkvmerge v33.1.0 ('Primrose') 64-bit
Writing library : libebml v1.3.7 + libmatroska v1.5.0
Video
ID : 1
Format : AVC
Format/Info : Advanced Video Codec
Format profile : [email protected]
Format settings, CABAC : Yes
Format settings, ReFrames : 4 frames
Codec ID : V_MPEG4/ISO/AVC
Duration : 1 h 20 min
Bit rate : 2 428 kb/s
Width : 1 920 pixels
Height : 1 080 pixels
Display aspect ratio : 16:9
Frame rate mode : Constant
Frame rate : 23.976 (24000/1001) FPS
Color space : YUV
Chroma subsampling : 4:2:0
Bit depth : 8 bits
Scan type : Progressive
Bits/(Pixel*Frame) : 0.049
Stream size : 1.36 GiB (79%)
Default : Yes
Forced : No
Audio #1
ID : 2
Format : AC-3
Format/Info : Audio Coding 3
Mode extension : CM (complete main)
Format settings, Endianness : Big
Codec ID : A_AC3
Duration : 1 h 20 min
Bit rate mode : Constant
Bit rate : 384 kb/s
Channel(s) : 6 channels
Channel positions : Front: L C R, Side: L R, LFE
Sampling rate : 48.0 kHz
Frame rate : 31.250 FPS (1536 spf)
Bit depth : 16 bits
Compression mode : Lossy
Stream size : 221 MiB (13%)
Title : TVShows
Language : Russian
Default : Yes
Forced : Yes
Audio #2
ID : 3
Format : E-AC-3
Format/Info : Enhanced Audio Coding 3
Format settings, Endianness : Big
Codec ID : A_EAC3
Duration : 1 h 20 min
Bit rate mode : Constant
Bit rate : 256 kb/s
Channel(s) : 6 channels
Channel positions : Front: L C R, Side: L R, LFE
Sampling rate : 48.0 kHz
Frame rate : 187.500 FPS (256 spf)
Compression mode : Lossy
Stream size : 147 MiB (8%)
Title : Original
Language : English
Default : No
Forced : No
Text
ID : 4
Format : UTF-8
Codec ID : S_TEXT/UTF8
Codec ID/Info : UTF-8 Plain Text
Duration : 1 h 17 min
Bit rate : 67 b/s
Count of elements : 1599
Stream size : 38.2 KiB (0%)
Title : English
Language : English
Default : No
Forced : No

Скриншоты

[korsars.info].t25597.torrent 
Торрент: Зарегистрирован [ 2020-01-12 17:00 ] · D78D9B20D8718B7BBAC776ADAE0FAE86661AD500

Скачать .torrent

Скачать .torrent

49 KB

Статус: проверено
.torrent скачан: 1 раз
Размер: 9,53 GB
Правила
Похожие темы

[Профиль] [ЛС]
Показать сообщения:    
Ответить на тему

Текущее время: 27-Янв 14:31

Часовой пояс: UTC + 4



Вы не можете начинать темы
Вы не можете отвечать на сообщения
Вы не можете редактировать свои сообщения
Вы не можете удалять свои сообщения
Вы не можете голосовать в опросах
Вы не можете прикреплять файлы к сообщениям
Вы можете скачивать файлы
Анализ сайта korsars.info Яндекс.Метрика