Апгрейд / Upgrade (2018) BDRip 1080p | Rus Transfer | D, P | Лицензия

Ответить на тему
Статистика раздачи [Обновить пиров]
Размер:  8,77 GB   |    Зарегистрирован:  10 дней   |    .torrent скачан:  0 раз
Сидов:  112  [  0 KB/s  ]   Личеров:  8  [  0 KB/s  ]   Подробная статистика пиров
 
   
 
 
Автор Сообщение

4udaki ®

Онлайн



Пол: Мужской

Стаж: 5 лет 2 месяца

Наличие запрета:

Сообщений: 5486

Откуда: korsars.info

Отдача: 2 Mb/s

Загрузка: 20 Mb/s

Нажми

Создавать темы 12-Янв-2020 21:00

[Цитировать]

Информация о фильме
Название: Апгрейд
Оригинальное название: Upgrade
Год выхода: 2018
Жанр: фантастика, боевик, триллер, детектив, криминал
Режиссер: Ли Уоннелл
В ролях: Логан Маршалл-Грин, Ричард Анастасиос, Роско Кэмпбелл, Ричард Коуторн, Линда Кроппер, Стив Даниелсен, Майкл М. Фостер, Бетти Гэбриел, Рена Галлахер, Харрисон Гилбертсон
О фильме:
В ближайшем будущем разнообразные технологии участвуют во всех аспектах человеческой жизни. Но в этом технологичном мире Грей — один из немногих людей, кто любит работать руками. Он восстанавливает и чинит старые автомобили. Однажды, возвращаясь от клиента, Грей с женой попадают в аварию, а после — в руки банды отморозков, в результате чего женщина погибает, а Грей оказывается парализованным ниже шеи. Тот самый богатый клиент предлагает несчастному поставить экспериментальный имплант Stem, который может полностью восстановить подвижность.

Страна: Австралия
Студия: Blumhouse Productions, Goalpost Pictures
Продолжительность: 01:40:21
Перевод: Дублированный, Профессиональный (многоголосый, закадровый)
Файл
Качество: BDRip 1080p | Rus Transfer | D, P | Лицензия
Видео: AVC/H.264, 1920x804, 7575 Кbps, 24 fps
Звук:
Аудио 1: DTS, 6 ch, 1509 Kbps - Русский (DUB)
Аудио 2: AC3, 6 ch, 640 Kbps - Русский (DUB)
Аудио 3: AC3, 6 ch, 640 Kbps - Русский (MVO Jaskier)
Аудио 4: AC3, 6 ch, 640 Kbps - Русский (MVO СВ Студия)
Аудио 5: DTS, 6 ch, 1509 Kbps - Английский
Субтитры: Русский (Форс., Полные), Английский (Full, SDH)

x264 log & MediaInfo

x264 [info]: frame I:1034 Avg QP:13.89 size:193683
x264 [info]: frame P:35828 Avg QP:17.84 size: 68110
x264 [info]: frame B:107649 Avg QP:17.99 size: 28395
x264 [info]: consecutive B-frames: 4.8% 4.0% 8.6% 23.1% 16.6% 30.6% 7.2% 3.1% 1.0% 0.9%
Общее
Уникальный идентификатор : 157797548850398145830701794530899711061 (0x76B6B3D3A4FEA570D6FBB601C46ED455)
Полное имя : Upgrade.2018.BDRip.1080p.W.mkv
Формат : Matroska
Версия формата : Version 4
Размер файла : 8,77 Гбайт
Продолжительность : 1 ч. 40 м.
Общий поток : 12,5 Мбит/сек
Название фильма : Upgrade.2018.BDRip.1080p.W
Дата кодирования : UTC 2019-11-27 22:04:29
Программа кодирования : mkvmerge v23.0.0 ('The Bride Said No') 64-bit
Библиотека кодирования : libebml v1.3.6 + libmatroska v1.4.9
Видео
Идентификатор : 1
Формат : AVC
Формат/Информация : Advanced Video Codec
Профиль формата : [email protected]
Настройки формата : CABAC / 5 Ref Frames
Параметр CABAC формата : Да
Параметр RefFrames формата : 5 кадров
Идентификатор кодека : V_MPEG4/ISO/AVC
Продолжительность : 1 ч. 40 м.
Битрейт : 7575 Кбит/сек
Ширина : 1920 пикселей
Высота : 804 пикселя
Соотношение сторон : 2,40:1
Режим частоты кадров : Постоянный
Частота кадров : 24,000 кадра/сек
Цветовое пространство : YUV
Субдискретизация насыщенности : 4:2:0
Битовая глубина : 8 бит
Тип развёртки : Прогрессивная
Бит/(Пиксели*Кадры) : 0.204
Размер потока : 5,31 Гбайт (61%)
Заголовок : rip by -=walledol=-
Библиотека кодирования : x264 core 158 r2988 7817004
Настройки программы : cabac=1 / ref=5 / deblock=1:-3:-3 / analyse=0x3:0x133 / me=umh / subme=11 / psy=1 / psy_rd=1.00:0.10 / mixed_ref=1 / me_range=32 / chroma_me=1 / trellis=2 / 8x8dct=1 / cqm=0 / deadzone=21,11 / fast_pskip=0 / chroma_qp_offset=-3 / threads=12 / lookahead_threads=2 / sliced_threads=0 / nr=0 / decimate=1 / interlaced=0 / bluray_compat=0 / constrained_intra=0 / bframes=9 / b_pyramid=2 / b_adapt=2 / b_bias=0 / direct=3 / weightb=1 / open_gop=0 / weightp=2 / keyint=240 / keyint_min=24 / scenecut=40 / intra_refresh=0 / rc_lookahead=60 / rc=2pass / mbtree=0 / bitrate=7575 / ratetol=1.0 / qcomp=0.60 / qpmin=0 / qpmax=69 / qpstep=4 / cplxblur=20.0 / qblur=0.5 / vbv_maxrate=30000 / vbv_bufsize=33000 / nal_hrd=none / filler=0 / ip_ratio=1.40 / pb_ratio=1.30 / aq=3:0.80 / zones=135832,144245,q=40
Язык : English
Default : Да
Forced : Нет
Аудио #1
Идентификатор : 2
Формат : DTS
Формат/Информация : Digital Theater Systems
Идентификатор кодека : A_DTS
Продолжительность : 1 ч. 40 м.
Вид битрейта : Постоянный
Битрейт : 1509 Кбит/сек
Каналы : 6 каналов
ChannelLayout : C L R Ls Rs LFE
Частота : 48,0 КГц
Частота кадров : 93,750 кадра/сек (512 SPF)
Битовая глубина : 24 бит
Метод сжатия : С потерями
Размер потока : 1,06 Гбайт (12%)
Заголовок : DUB
Язык : Russian
Default : Да
Forced : Нет
Аудио #2
Идентификатор : 3
Формат : AC-3
Формат/Информация : Audio Coding 3
Коммерческое название : Dolby Digital
Идентификатор кодека : A_AC3
Продолжительность : 1 ч. 40 м.
Вид битрейта : Постоянный
Битрейт : 640 Кбит/сек
Каналы : 6 каналов
ChannelLayout : L R C LFE Ls Rs
Частота : 48,0 КГц
Частота кадров : 31,250 кадров/сек (1536 SPF)
Метод сжатия : С потерями
Размер потока : 459 Мбайт (5%)
Заголовок : DUB
Язык : Russian
ServiceKind : Complete Main
Default : Нет
Forced : Нет
Аудио #3
Идентификатор : 4
Формат : AC-3
Формат/Информация : Audio Coding 3
Коммерческое название : Dolby Digital
Идентификатор кодека : A_AC3
Продолжительность : 1 ч. 40 м.
Вид битрейта : Постоянный
Битрейт : 640 Кбит/сек
Каналы : 6 каналов
ChannelLayout : L R C LFE Ls Rs
Частота : 48,0 КГц
Частота кадров : 31,250 кадров/сек (1536 SPF)
Метод сжатия : С потерями
Размер потока : 459 Мбайт (5%)
Заголовок : MVO (Jaskier)
Язык : Russian
ServiceKind : Complete Main
Default : Нет
Forced : Нет
Аудио #4
Идентификатор : 5
Формат : AC-3
Формат/Информация : Audio Coding 3
Коммерческое название : Dolby Digital
Идентификатор кодека : A_AC3
Продолжительность : 1 ч. 40 м.
Вид битрейта : Постоянный
Битрейт : 640 Кбит/сек
Каналы : 6 каналов
ChannelLayout : L R C LFE Ls Rs
Частота : 48,0 КГц
Частота кадров : 31,250 кадров/сек (1536 SPF)
Метод сжатия : С потерями
Размер потока : 459 Мбайт (5%)
Заголовок : MVO (СВ Студия)
Язык : Russian
ServiceKind : Complete Main
Default : Нет
Forced : Нет
Аудио #5
Идентификатор : 6
Формат : DTS
Формат/Информация : Digital Theater Systems
Идентификатор кодека : A_DTS
Продолжительность : 1 ч. 40 м.
Вид битрейта : Постоянный
Битрейт : 1509 Кбит/сек
Каналы : 6 каналов
ChannelLayout : C L R Ls Rs LFE
Частота : 48,0 КГц
Частота кадров : 93,750 кадра/сек (512 SPF)
Битовая глубина : 24 бит
Метод сжатия : С потерями
Размер потока : 1,06 Гбайт (12%)
Язык : English
Default : Нет
Forced : Нет
Текст #1
Идентификатор : 7
Формат : UTF-8
Идентификатор кодека : S_TEXT/UTF8
Идентификатор кодека/Информация : UTF-8 Plain Text
Продолжительность : 1 ч. 4 м.
Битрейт : 0 бит/сек
ElementCount : 8
Размер потока : 482 байт (0%)
Заголовок : Forced
Язык : Russian
Default : Нет
Forced : Нет
Текст #2
Идентификатор : 8
Формат : UTF-8
Идентификатор кодека : S_TEXT/UTF8
Идентификатор кодека/Информация : UTF-8 Plain Text
Продолжительность : 1 ч. 33 м.
Битрейт : 79 бит/сек
ElementCount : 1163
Размер потока : 54,7 Кбайт (0%)
Заголовок : Full (СВ Студия)
Язык : Russian
Default : Нет
Forced : Нет
Текст #3
Идентификатор : 9
Формат : UTF-8
Идентификатор кодека : S_TEXT/UTF8
Идентификатор кодека/Информация : UTF-8 Plain Text
Продолжительность : 1 ч. 32 м.
Битрейт : 88 бит/сек
ElementCount : 1290
Размер потока : 59,6 Кбайт (0%)
Заголовок : Full
Язык : Russian
Default : Нет
Forced : Нет
Текст #4
Идентификатор : 10
Формат : UTF-8
Идентификатор кодека : S_TEXT/UTF8
Идентификатор кодека/Информация : UTF-8 Plain Text
Продолжительность : 1 ч. 32 м.
Битрейт : 51 бит/сек
ElementCount : 1066
Размер потока : 34,9 Кбайт (0%)
Заголовок : Full
Язык : English
Default : Нет
Forced : Нет
Текст #5
Идентификатор : 11
Формат : UTF-8
Идентификатор кодека : S_TEXT/UTF8
Идентификатор кодека/Информация : UTF-8 Plain Text
Продолжительность : 1 ч. 32 м.
Битрейт : 53 бит/сек
ElementCount : 1308
Размер потока : 36,3 Кбайт (0%)
Заголовок : SDH
Язык : English
Default : Нет
Forced : Нет
Меню
00:00:00.000 : en:Chapter 01
00:01:45.167 : en:Chapter 02
00:10:38.708 : en:Chapter 03
00:19:34.500 : en:Chapter 04
00:30:27.083 : en:Chapter 05
00:41:36.375 : en:Chapter 06
00:51:28.500 : en:Chapter 07
01:01:55.833 : en:Chapter 08
01:11:53.583 : en:Chapter 09
01:20:35.583 : en:Chapter 10
01:29:34.458 : en:Chapter 11

Скриншоты

[korsars.info].t25598.torrent 
Торрент: Зарегистрирован [ 2020-01-12 21:00 ] · E28256F4B1A29C8EE11BC0CCB3E93828C8DC8909

Скачать .torrent

Скачать .torrent

45 KB

Статус: проверено
.torrent скачан: 0 раз
Размер: 8,77 GB
Правила
Похожие темы

[Профиль] [ЛС]
Показать сообщения:    
Ответить на тему

Текущее время: 23-Янв 13:18

Часовой пояс: UTC + 4



Вы не можете начинать темы
Вы не можете отвечать на сообщения
Вы не можете редактировать свои сообщения
Вы не можете удалять свои сообщения
Вы не можете голосовать в опросах
Вы не можете прикреплять файлы к сообщениям
Вы можете скачивать файлы
Анализ сайта korsars.info Яндекс.Метрика