Живое / Life (2017) BDRip-HEVC 1080p от HEVC-CLUB | Лицензия

Ответить на тему
Статистика раздачи [Обновить пиров]
Размер:  5,23 GB   |    Зарегистрирован:  6 месяцев 27 дней   |    .torrent скачан:  2 раза
Раздают:  8  [  0 KB/s  ]   Качают:  6  [  0 KB/s  ]   Подробная статистика пиров
 
   
 
 
Автор Сообщение

4udaki ®

Оффлайн

Медали


Пол: Мужской

Стаж: 5 лет 9 месяцев

Наличие запрета:

Сообщений: 7682

Откуда: korsars.info

Отдача: 2 Mb/s

Загрузка: 20 Mb/s

Нажми


Скачать Adguard бесплатно

Создавать темы 12-Янв-2020 21:00

[Цитировать]

Название: Живое
Оригинальное название: Life
Год выхода: 2017
Производство: США / Columbia Pictures, Skydance Productions, Sony Pictures Entertainment (SPE)
Жанр: Ужасы, фантастика, триллер
Продолжительность: 01:43:58
Режиссер: Даниэль Эспиноса
В ролях: Джейк Джилленхол, Ребекка Фергюсон (II), Райан Рейнольдс, Ольга Дыховичная, Эрион Бакаре, Хироюки Санада, Наоко Мори, Александр Нгуйен, Камиль Уоррен-Тейлор, Хиу Ун-Син
Описание: Международная космическая станция. Наши дни. С Марса прилетает модуль с образцами пород, куда совершенно случайно затесалась тамошняя инфузория-тапочка в свежезамороженном состоянии. Команда исследователей с упоением начинает издеваться над чужеродным организмом: помещает его в кислотную среду, кормит денатуратом с ложечки, бьет электрическим шокером и поджаривает лазерным резаком. В результате перенесенных потрясений инопланетный гость превращается в агрессивно настроенного пожирателя мозгов, выбирается из инкубатора и устраивает экипажу станции веселую жизнь
Качество: BDRip-HEVC 1080p
Видео: HEVC/H.265, 1920x804, ~6309 Kbps, 10 bit
Аудио 01: AC3, 6 ch, 448 Kbps | Русский, Дублированный
Аудио 02: AC3, 6 ch, 448 Kbps | Английский, Оригинал
Субтитры: Русские (форсированные, полные), английские (полные)

Релиз от: [email protected]

Mediainfo

Формат : Matroska
Версия формата : Version 4
Размер файла : 5,23 Гбайт
Продолжительность : 1 ч. 43 м.
Общий поток : 7207 Кбит/сек
Название фильма : Живое (2017) [email protected]
Дата кодирования : UTC 2019-10-19 16:19:23
Программа кодирования : mkvmerge v38.0.0 ('The Silent Type') 64-bit
Библиотека кодирования : libebml v1.3.9 + libmatroska v1.5.2
Обложка : Yes
Attachments : cover.jpg
Видео
Идентификатор : 1
Формат : HEVC
Формат/Информация : High Efficiency Video Coding
Профиль формата : Main [email protected]@High
Идентификатор кодека : V_MPEGH/ISO/HEVC
Продолжительность : 1 ч. 43 м.
Битрейт : 6309 Кбит/сек
Ширина : 1920 пикселей
Высота : 804 пикселя
Соотношение сторон : 2,40:1
Режим частоты кадров : Постоянный
Частота кадров : 23,976 (24000/1001) кадра/сек
Цветовое пространство : YUV
Субдискретизация насыщенности : 4:2:0
Битовая глубина : 10 бит
Бит/(Пиксели*Кадры) : 0.170
Размер потока : 4,58 Гбайт (88%)
Библиотека кодирования : x265 3.1+11-de920e0a3183:[Windows][clang 8.0.1][64 bit] 10bit
Настройки программы : cpuid=1049583 / frame-threads=5 / numa-pools=4 / wpp / no-pmode / no-pme / no-psnr / no-ssim / log-level=3 / input-csp=1 / input-res=1920x804 / interlace=0 / total-frames=0 / level-idc=41 / high-tier=1 / uhd-bd=0 / ref=5 / allow-non-conformance / no-repeat-headers / annexb / no-aud / no-hrd / info / hash=0 / no-temporal-layers / open-gop / min-keyint=24 / keyint=240 / gop-lookahead=0 / bframes=9 / b-adapt=2 / b-pyramid / bframe-bias=0 / rc-lookahead=40 / lookahead-slices=5 / scenecut=40 / radl=0 / no-splice / no-intra-refresh / ctu=32 / min-cu-size=8 / no-rect / no-amp / max-tu-size=32 / tu-inter-depth=4 / tu-intra-depth=4 / limit-tu=1 / rdoq-level=1 / dynamic-rd=0.00 / no-ssim-rd / signhide / no-tskip / nr-intra=0 / nr-inter=0 / no-constrained-intra / no-strong-intra-smoothing / max-merge=5 / limit-refs=1 / no-limit-modes / me=3 / subme=7 / merange=57 / temporal-mvp / no-hme / weightp / no-weightb / no-analyze-src-pics / deblock=-3:-3 / no-sao / no-sao-non-deblock / rd=3 / early-skip / no-rskip / no-fast-intra / no-tskip-fast / no-cu-lossless / b-intra / no-splitrd-skip / rdpenalty=0 / psy-rd=2.00 / psy-rdoq=1.00 / no-rd-refine / no-lossless / cbqpoffs=0 / crqpoffs=0 / rc=crf / crf=20.0 / qcomp=0.60 / qpstep=4 / stats-write=0 / stats-read=0 / vbv-maxrate=50000 / vbv-bufsize=50000 / vbv-init=0.9 / crf-max=0.0 / crf-min=0.0 / ipratio=1.40 / pbratio=1.30 / aq-mode=3 / aq-strength=1.00 / no-cutree / zone-count=0 / no-strict-cbr / qg-size=32 / no-rc-grain / qpmax=69 / qpmin=0 / no-const-vbv / sar=1 / overscan=0 / videoformat=5 / range=0 / colorprim=2 / transfer=2 / colormatrix=2 / chromaloc=0 / display-window=0cll=0,0 / min-luma=0 / max-luma=1023 / log2-max-poc-lsb=8 / vui-timing-info / vui-hrd-info / slices=1 / no-opt-qp-pps / no-opt-ref-list-length-pps / no-multi-pass-opt-rps / scenecut-bias=0.05 / no-opt-cu-delta-qp / no-aq-motion / no-hdr / no-hdr-opt / no-dhdr10-opt / no-idr-recovery-sei / analysis-reuse-level=5 / scale-factor=0 / refine-intra=0 / refine-inter=0 / refine-mv=0 / refine-ctu-distortion=0 / no-limit-sao / ctu-info=0 / no-lowpass-dct / refine-analysis-type=0 / copy-pic=1 / max-ausize-factor=1.0 / no-dynamic-refine / no-single-sei / no-hevc-aq / no-svt / no-field / qp-adaptation-range=1.00
Язык : English
Default : Да
Forced : Нет
Цветовой диапазон : Limited
Аудио #1
Идентификатор : 2
Формат : AC-3
Формат/Информация : Audio Coding 3
Коммерческое название : Dolby Digital
Идентификатор кодека : A_AC3
Продолжительность : 1 ч. 43 м.
Вид битрейта : Постоянный
Битрейт : 448 Кбит/сек
Каналы : 6 каналов
ChannelLayout : L R C LFE Ls Rs
Частота : 48,0 КГц
Частота кадров : 31,250 кадров/сек (1536 SPF)
Метод сжатия : С потерями
Размер потока : 333 Мбайт (6%)
Заголовок : Дубляж
Язык : Russian
Default : Да
Forced : Нет
Аудио #2
Идентификатор : 3
Формат : AC-3
Формат/Информация : Audio Coding 3
Коммерческое название : Dolby Digital
Идентификатор кодека : A_AC3
Продолжительность : 1 ч. 43 м.
Вид битрейта : Постоянный
Битрейт : 448 Кбит/сек
Каналы : 6 каналов
ChannelLayout : L R C LFE Ls Rs
Частота : 48,0 КГц
Частота кадров : 31,250 кадров/сек (1536 SPF)
Метод сжатия : С потерями
Размер потока : 333 Мбайт (6%)
Заголовок : Оригинал
Язык : English
Default : Нет
Forced : Нет
Текст #1
Идентификатор : 4
Формат : UTF-8
Идентификатор кодека : S_TEXT/UTF8
Идентификатор кодека/Информация : UTF-8 Plain Text
Продолжительность : 1 ч. 41 м.
Битрейт : 2 бит/сек
ElementCount : 38
Размер потока : 1,50 Кбайт (0%)
Заголовок : Rus Forced
Язык : Russian
Default : Да
Forced : Да
Текст #2
Идентификатор : 5
Формат : UTF-8
Идентификатор кодека : S_TEXT/UTF8
Идентификатор кодека/Информация : UTF-8 Plain Text
Продолжительность : 1 ч. 41 м.
Битрейт : 73 бит/сек
ElementCount : 1128
Размер потока : 54,5 Кбайт (0%)
Заголовок : Rus Full
Язык : Russian
Default : Нет
Forced : Нет
Текст #3
Идентификатор : 6
Формат : UTF-8
Идентификатор кодека : S_TEXT/UTF8
Идентификатор кодека/Информация : UTF-8 Plain Text
Продолжительность : 1 ч. 31 м.
Битрейт : 46 бит/сек
ElementCount : 1101
Размер потока : 31,2 Кбайт (0%)
Заголовок : Eng Full
Язык : English
Default : Нет
Forced : Нет
Меню
00:00:00.000 : :00:00:00.000
00:09:32.864 : :00:09:32.864
00:13:13.084 : :00:13:13.084
00:15:36.894 : :00:15:36.894
00:19:35.341 : :00:19:35.341
00:24:57.454 : :00:24:57.454
00:34:36.992 : :00:34:36.992
00:40:45.109 : :00:40:45.109
00:43:59.303 : :00:43:59.303
00:52:21.805 : :00:52:21.805
00:58:33.927 : :00:58:33.927
01:06:37.785 : :01:06:37.785
01:11:43.257 : :01:11:43.257
01:17:50.875 : :01:17:50.875
01:22:39.621 : :01:22:39.621
01:28:34.309 : :01:28:34.309

Скриншоты

[korsars.info].t25599.torrent 
Торрент: Зарегистрирован [ 2020-01-12 21:00 ] · 8C6CC864FDA36E246D4DD5982ADBB3020BEE1FD4

Скачать .torrent

Размер .torrent файла 14 KB

Статус: проверено
.torrent скачан: 2 раз
Размер: 5,23 GB
Правила
Похожие темы

[Профиль] [ЛС]
Показать сообщения:    
Ответить на тему

Текущее время: 09-Авг 14:36

Часовой пояс: UTC + 4



Вы не можете начинать темы
Вы не можете отвечать на сообщения
Вы не можете редактировать свои сообщения
Вы не можете удалять свои сообщения
Вы не можете голосовать в опросах
Вы не можете прикреплять файлы к сообщениям
Вы можете скачивать файлы
Анализ сайта korsars.info Яндекс.Метрика