Рожденный после смерти / Strange But True (2019) BDRip 1080p | iTunes

Ответить на тему
Статистика раздачи [Обновить пиров]
Размер:  7,32 GB   |    Зарегистрирован:  8 дней   |    .torrent скачан:  1 раз
Сидов:  620  [  0 KB/s  ]   Личеров:  39  [  0 KB/s  ]   Подробная статистика пиров
 
   
 
 
Автор Сообщение

4udaki ®

Оффлайн



Пол: Мужской

Стаж: 5 лет 2 месяца

Наличие запрета:

Сообщений: 5450

Откуда: korsars.info

Отдача: 2 Mb/s

Загрузка: 20 Mb/s

Нажми

Создавать темы 13-Янв-2020 13:00

[Цитировать]

Информация о фильме
Название: Рожденный после смерти
Оригинальное название: Strange But True
Год выхода: 2019
Жанр: Триллер
Страна: Канада
Перевод: Профессиональный (многоголосый закадровый) | iTunes
Продолжительность: 01:35:37
Режиссер: Роуэн Этейл
В ролях: Ник Робинсон, Эми Райан, Грег Киннир, Брайан Кокс, Маргарет Куэлли, Коннор Джессап, Блайт Даннер, Яная Стефенс, Мена Массуд, Сара Аллен и др.
О фильме: Спустя пять лет после гибели старшеклассника Ронни Чейза, который разбился на машине в выпускной вечер, к его матери и брату приходит его школьная подруга Мелисса. Она уверяет, что ждёт ребенка от Ронни. Недоверчивые родственники пытаются выяснить правду, которая оказывается страшнее всех предположений.

Файл
Качество: BDRip 1080p | Strange.But.True.2019.COMPLETE.BLURAY-watchHD
Видео: MPEG-4 AVC, 1920x804, 10124 kbps, 23,976 fps
Звук#1: русский, AC3, 5.1 ch, 48 kHz, 384 kbps | iTunes
Звук#2: английский, AC3, 5.1 ch, 48 kHz, 448 kbps | Оригинал
Субтитры: английские (SDH)

MI

Общее
Уникальный идентификатор : 185701622244337048062513152860492964752 (0x8BB4D4DD31E1AB5892883562A660A390)
Полное имя : G:Torrent2StrangeButTrueBDRip1080p.mkv
Формат : Matroska
Версия формата : Version 4 / Version 2
Размер файла : 7,32 Гбайт
Продолжительность : 1 ч. 35 м.
Общий поток : 11,0 Мбит/сек
Дата кодирования : UTC 2020-01-04 19:49:17
Программа кодирования : mkvmerge v9.5.0 ('Quiet Fire') 64bit
Библиотека кодирования : libebml v1.3.4 + libmatroska v1.4.5
Видео
Идентификатор : 1
Формат : AVC
Формат/Информация : Advanced Video Codec
Профиль формата : [email protected]
Настройки формата : CABAC / 5 Ref Frames
Параметр CABAC формата : Да
Параметр RefFrames формата : 5 кадров
Идентификатор кодека : V_MPEG4/ISO/AVC
Продолжительность : 1 ч. 35 м.
Битрейт : 10,1 Мбит/сек
Ширина : 1920 пикселей
Высота : 804 пикселя
Соотношение сторон : 2,40:1
Режим частоты кадров : Постоянный
Частота кадров : 23,976 (24000/1001) кадра/сек
Цветовое пространство : YUV
Субдискретизация насыщенности : 4:2:0
Битовая глубина : 8 бит
Тип развёртки : Прогрессивная
Бит/(Пиксели*Кадры) : 0.274
Размер потока : 6,76 Гбайт (92%)
Заголовок : Sisendrovich(R)
Библиотека кодирования : x264 core 157 r2958 57baac4
Настройки программы : cabac=1 / ref=5 / deblock=1:-1:-1 / analyse=0x3:0x133 / me=tesa / subme=11 / psy=1 / psy_rd=1.00:0.00 / mixed_ref=1 / me_range=32 / chroma_me=1 / trellis=2 / 8x8dct=1 / cqm=0 / deadzone=21,11 / fast_pskip=0 / chroma_qp_offset=-2 / threads=17 / lookahead_threads=4 / sliced_threads=0 / nr=0 / decimate=0 / interlaced=0 / bluray_compat=0 / constrained_intra=0 / bframes=12 / b_pyramid=2 / b_adapt=2 / b_bias=0 / direct=3 / weightb=1 / open_gop=0 / weightp=2 / keyint=240 / keyint_min=23 / scenecut=40 / intra_refresh=0 / rc_lookahead=120 / rc=2pass / mbtree=0 / bitrate=10124 / ratetol=1.0 / qcomp=0.70 / qpmin=0 / qpmax=69 / qpstep=4 / cplxblur=20.0 / qblur=0.5 / vbv_maxrate=50000 / vbv_bufsize=62500 / nal_hrd=none / filler=0 / ip_ratio=1.40 / pb_ratio=1.30 / aq=3:0.90
Язык : English
Default : Да
Forced : Нет
Аудио #1
Идентификатор : 2
Формат : AC-3
Формат/Информация : Audio Coding 3
Параметр Endianness формата : Big
Идентификатор кодека : A_AC3
Продолжительность : 1 ч. 35 м.
Вид битрейта : Постоянный
Битрейт : 384 Кбит/сек
Каналы : 6 каналов
Расположение каналов : Front: L C R, Side: L R, LFE
Частота : 48,0 КГц
Частота кадров : 31,250 кадров/сек (1536 SPF)
Битовая глубина : 16 бит
Метод сжатия : С потерями
Размер потока : 263 Мбайт (4%)
Заголовок : rus
Язык : Russian
Default : Да
Forced : Нет
Аудио #2
Идентификатор : 3
Формат : AC-3
Формат/Информация : Audio Coding 3
Параметр Endianness формата : Big
Идентификатор кодека : A_AC3
Продолжительность : 1 ч. 35 м.
Вид битрейта : Постоянный
Битрейт : 448 Кбит/сек
Каналы : 6 каналов
Расположение каналов : Front: L C R, Side: L R, LFE
Частота : 48,0 КГц
Частота кадров : 31,250 кадров/сек (1536 SPF)
Битовая глубина : 16 бит
Метод сжатия : С потерями
Размер потока : 306 Мбайт (4%)
Заголовок : eng
Язык : English
Default : Нет
Forced : Нет
Текст
Идентификатор : 4
Формат : UTF-8
Идентификатор кодека : S_TEXT/UTF8
Идентификатор кодека/Информация : UTF-8 Plain Text
Продолжительность : 1 ч. 30 м.
Битрейт : 54 бит/сек
ElementCount : 1241
Размер потока : 36,1 Кбайт (0%)
Заголовок : engSDH
Язык : English
Default : Нет
Forced : Нет
Меню
00:00:00.000 : :Chapter 1
00:07:01.003 : :Chapter 2
00:11:49.834 : :Chapter 3
00:17:40.392 : :Chapter 4
00:24:23.003 : :Chapter 5
00:29:39.360 : :Chapter 6
00:35:54.527 : :Chapter 7
00:43:15.718 : :Chapter 8
00:47:56.415 : :Chapter 9
00:53:46.306 : :Chapter 10
01:02:07.265 : :Chapter 11
01:05:41.270 : :Chapter 12
01:15:38.283 : :Chapter 13
01:19:51.995 : :Chapter 14
01:26:40.612 : :Chapter 15
01:29:59.602 : :Chapter 16

Скриншоты

Рип и релиз от:
[korsars.info].t25614.torrent 
Торрент: Зарегистрирован [ 2020-01-13 13:00 ] · 3319F8DDCC8FE8B394761F72CB86C68A22AAFB1A

Скачать .torrent

Скачать .torrent

19 KB

Статус: проверено
.torrent скачан: 1 раз
Размер: 7,32 GB
Правила
Похожие темы

[Профиль] [ЛС]
Показать сообщения:    
Ответить на тему

Текущее время: 21-Янв 19:36

Часовой пояс: UTC + 4



Вы не можете начинать темы
Вы не можете отвечать на сообщения
Вы не можете редактировать свои сообщения
Вы не можете удалять свои сообщения
Вы не можете голосовать в опросах
Вы не можете прикреплять файлы к сообщениям
Вы можете скачивать файлы
Анализ сайта korsars.info Яндекс.Метрика