Ким Джи-ён, 1982 года рождения / Kim Ji-young: Born 1982 / 82nyeonsaeng Kim Ji-yeong (2019) WEB-DL 1080p | Sub

Ответить на тему
Статистика раздачи [Обновить пиров]
Размер:  4,51 GB   |    Зарегистрирован:  14 дней   |    .torrent скачан:  0 раз
Раздают:  20  [  0 KB/s  ]   Качают:  3  [  0 KB/s  ]   Подробная статистика пиров
 
   
 
 
Автор Сообщение

4udaki ®

Оффлайн



Пол: Мужской

Стаж: 5 лет 2 месяца

Наличие запрета:

Сообщений: 5548

Откуда: korsars.info

Отдача: 2 Mb/s

Загрузка: 20 Mb/s

Нажми

Создавать темы 13-Янв-2020 13:00

[Цитировать]

Информация о фильме
Название: Ким Джи-ён, 1982 года рождения
Оригинальное название: Kim Ji-young: Born 1982 / 82nyeonsaeng Kim Ji-yeong
Год выхода: 2019
Жанр: драма
Режиссер: Ким До-ён
В ролях: Чон Ю-ми, Кон Ю, Ким Ми-гён, Чон Гук-хян, Ли Хэ-ун, Пак Сон-ён, Ли Бон-нён, Ким Сон-чхоль, Ли Оль, Е Су-джон
Описание: Ким Джи Ён, обычная 36-летняя кореянка, имеет одно из самых распространенных женских имен для людей ее возраста. Она замужем и воспитывает маленькую дочь, уволившись с работы после ее рождения. Женщина ведёт обычную жизнь домохозяйки, заботясь о своём муже и дочери, выполняя из последних сил, целый день домашние дела. У Джи Ён есть много того, что она хочет сказать — что измотана, что заслуживает того, чтобы отдохнуть с чашкой горячего кофе или уже выйти на работу. Но никто не слушает ее и даже не позволяет ей сказать это.
Вскоре муж стал замечать странности у жены: забывчивость, усталость, злость, поведение несвойственное Джи Ён. Поэтому он обращается к психиатру, чтобы разобраться в чем деле, но тот настаивает на личном визите жены.

Страна: Южная Корея
Продолжительность: 01:58:52
Перевод: cубтитры
Субтитры: русские (Фансаб-группа Азалии)
Оригинальная аудиодорожка: корейский
Файл
Качество: WEB-DL 1080p
Видео: MPEG-4 AVC, 1920x1080, 23.976 fps, 5120 kbps
Звук: AAC, Korean, 2 ch, 320 kbps, 48 kHz

Скриншоты

MediaInfo

Формат : Matroska
Версия формата : Version 4
Размер файла : 4,51 Гбайт
Продолжительность : 1 ч. 58 м.
Общий поток : 5428 Кбит/сек
Дата кодирования : UTC 2019-12-14 13:18:32
Программа кодирования : mkvmerge v25.0.0 ('Prog Noir') 64-bit
Библиотека кодирования : libebml v1.3.6 + libmatroska v1.4.9
Видео
Идентификатор : 1
Формат : AVC
Формат/Информация : Advanced Video Codec
Профиль формата : [email protected]
Настройки формата : CABAC / 4 Ref Frames
Параметр CABAC формата : Да
Параметр RefFrames формата : 4 кадра
Параметр GOP формата : M=4, N=23
Идентификатор кодека : V_MPEG4/ISO/AVC
Продолжительность : 1 ч. 58 м.
Битрейт : 5120 Кбит/сек
Ширина : 1920 пикселей
Высота : 1080 пикселей
Соотношение сторон : 16:9
Режим частоты кадров : Постоянный
Частота кадров : 23,976 (24000/1001) кадра/сек
Цветовое пространство : YUV
Субдискретизация насыщенности : 4:2:0
Битовая глубина : 8 бит
Тип развёртки : Прогрессивная
Бит/(Пиксели*Кадры) : 0.103
Размер потока : 4,24 Гбайт (94%)
Библиотека кодирования : x264 core 148 r2768 d32d7bf
Настройки программы : cabac=1 / ref=3 / deblock=1:0:0 / analyse=0x3:0x113 / me=hex / subme=8 / psy=1 / psy_rd=1.00:0.00 / mixed_ref=1 / me_range=16 / chroma_me=1 / trellis=2 / 8x8dct=1 / cqm=0 / deadzone=21,11 / fast_pskip=1 / chroma_qp_offset=-2 / threads=24 / lookahead_threads=4 / sliced_threads=0 / nr=0 / decimate=1 / interlaced=0 / bluray_compat=0 / stitchable=1 / constrained_intra=0 / bframes=3 / b_pyramid=2 / b_adapt=1 / b_bias=0 / direct=3 / weightb=1 / open_gop=0 / weightp=2 / keyint=23 / keyint_min=12 / scenecut=40 / intra_refresh=0 / rc_lookahead=23 / rc=2pass / mbtree=1 / bitrate=5120 / ratetol=1.0 / qcomp=0.60 / qpmin=0 / qpmax=69 / qpstep=4 / cplxblur=20.0 / qblur=0.5 / vbv_maxrate=35840 / vbv_bufsize=35840 / nal_hrd=none / filler=0 / ip_ratio=1.40 / aq=1:1.00
Язык : Korean
Default : Да
Forced : Нет
Аудио
Идентификатор : 2
Формат : AAC LC
Формат/Информация : Advanced Audio Codec Low Complexity
Идентификатор кодека : A_AAC-2
Продолжительность : 1 ч. 58 м.
Битрейт : 320 Кбит/сек
Каналы : 2 канала
Channel layout : L R
Частота : 48,0 КГц
Частота кадров : 46,875 кадров/сек (1024 SPF)
Метод сжатия : С потерями
Размер потока : 272 Мбайт (6%)
Язык : Korean
Default : Да
Forced : Нет
Текст
Идентификатор : 3
Формат : ASS
Идентификатор кодека : S_TEXT/ASS
Идентификатор кодека/Информация : Advanced Sub Station Alpha
Продолжительность : 1 ч. 51 м.
Битрейт : 135 бит/сек
ElementCount : 1583
Метод сжатия : Без потерь
Размер потока : 111 Кбайт (0%)
Язык : Russian
Default : Да
Forced : Нет
[korsars.info].t25616.torrent 
Торрент: Зарегистрирован [ 2020-01-13 13:00 ] · BDDAA682E5A9C38BF5D4B839A87847280052EC1E

Скачать .torrent

Скачать .torrent

12 KB

Статус: проверено
.torrent скачан: 0 раз
Размер: 4,51 GB
Правила
Похожие темы

[Профиль] [ЛС]
Показать сообщения:    
Ответить на тему

Текущее время: 27-Янв 14:33

Часовой пояс: UTC + 4



Вы не можете начинать темы
Вы не можете отвечать на сообщения
Вы не можете редактировать свои сообщения
Вы не можете удалять свои сообщения
Вы не можете голосовать в опросах
Вы не можете прикреплять файлы к сообщениям
Вы можете скачивать файлы
Анализ сайта korsars.info Яндекс.Метрика