Вирус / The Flu / Gamgi (2013) BDRip от Deadmauvlad | КОЛОБОК

Ответить на тему
Статистика раздачи [Обновить пиров]
Размер:  1,46 GB   |    Зарегистрирован:  8 месяцев 9 дней   |    .torrent скачан:  1 раз
Раздают:  54  [  0 KB/s  ]   Качают:  2  [  0 KB/s  ]   Подробная статистика пиров
 
   
 
 
Автор Сообщение

4udaki ®

Оффлайн

Медали


Пол: Мужской

Стаж: 5 лет 10 месяцев

Наличие запрета:

Сообщений: 7970

Откуда: korsars.info

Отдача: 2 Mb/s

Загрузка: 20 Mb/s

Нажми


Скачать Adguard бесплатно

Создавать темы 13-Янв-2020 13:00

[Цитировать]

Информация о фильме
Название: Вирус
Оригинальное название: Gamgi
Год выхода: 2013
Жанр: драма
Режиссер: Ким Сон-су
В ролях: Чжан Хёк, Су Э, Ю Хэ Чжин, Ма Дон Сок, Ли Хи Чжун, Чха Ин Пхё
Описание: В городе появляется новый вирус, который передается через дыхательные пути и убивает в течение 36 часов после инфицирования.

Страна: Южная Корея
Студия : iFilm Co. Ltd.
Продолжительность: 02:01:50
Перевод: Любительский (двухголосый закадровый) den904, DeadSno
Файл
Кодек: XviD
Качество: BDRip [Исходник: The Flu (2013) BluRay 1080p AVC DTS-HD MA5.1-CHDBits]
Видео: 720x304 (2.35:1), 23.976 fps, 1 319 kb/s (0.251 bit/pixel)
Аудио : AC3; 384 Kbps; CBR; 6 ch; 48 khz | DVO - den904, DeadSno

MediaInfo

Общее
Полное имя : Вирус.2013.DVO.BDRip.1.46.GB.Deadmauvlad.avi
Формат : AVI
Формат/Информация : Audio Video Interleave
Размер файла : 1,46 Гбайт
Продолжительность : 2 ч. 1 м.
Общий поток : 1712 Кбит/сек
Название фильма : Вирус.2013.DVO.BDRip.1.46.GB.Deadmauvlad
Режиссёр : Encoder by Deadmauvlad
Жанр : драма
Программа кодирования : VirtualDubMod 1.5.10.3 | www.virtualdub-fr.org || (build 2550/release)
Формат оригинала/Имя : Фильм
Авторское право : Encoder by Deadmauvlad
Примечание : Encoder by Deadmauvlad
Видео
Идентификатор : 0
Формат : MPEG-4 Visual
Профиль формата : Advanced [email protected]
Настройки формата : BVOP1 / Custom Matrix
Параметр BVOP формата : 1
Параметр QPel формата : Нет
Параметр GMC формата : Без точки перехода
Параметр матрицы формата : Выборочная
Идентификатор кодека : XVID
Идентификатор кодека/Подсказка : XviD
Продолжительность : 2 ч. 1 м.
Битрейт : 1319 Кбит/сек
Ширина : 720 пикселей
Высота : 304 пикселя
Соотношение сторон : 2,35:1
Частота кадров : 23,976 (24000/1001) кадра/сек
Цветовое пространство : YUV
Субдискретизация насыщенности : 4:2:0
Битовая глубина : 8 бит
Тип развёртки : Прогрессивная
Метод сжатия : С потерями
Бит/(Пиксели*Кадры) : 0.251
Размер потока : 1,12 Гбайт (77%)
Библиотека кодирования : XviD 73
Аудио
Идентификатор : 1
Формат : AC-3
Формат/Информация : Audio Coding 3
Коммерческое название : Dolby Digital
Идентификатор кодека : 2000
Продолжительность : 2 ч. 1 м.
Вид битрейта : Постоянный
Битрейт : 384 Кбит/сек
Каналы : 6 каналов
ChannelLayout : L R C LFE Ls Rs
Частота : 48,0 КГц
Частота кадров : 31,250 кадров/сек (1536 SPF)
Метод сжатия : С потерями
Размер потока : 335 Мбайт (22%)
Выравнивание : Разделение по промежуткам
Продолжительность промежутка : 42 мс. (1,00 видеокадр)
Время предзагрузки промежутка : 500 мс.

Скриншоты

Релиз / Автор рипа: Deadmauvlad
[korsars.info].t25617.torrent 
Торрент: Зарегистрирован [ 2020-01-13 13:00 ] · 67B2D7A70D62C137C143F0596832EA2DEF3CBFFA

Скачать .torrent

Размер .torrent файла 16 KB

Статус: проверено
.torrent скачан: 1 раз
Размер: 1,46 GB
Правила
Похожие темы

[Профиль] [ЛС]
Показать сообщения:    
Ответить на тему

Текущее время: 23-Сен 12:22

Часовой пояс: UTC + 4



Вы не можете начинать темы
Вы не можете отвечать на сообщения
Вы не можете редактировать свои сообщения
Вы не можете удалять свои сообщения
Вы не можете голосовать в опросах
Вы не можете прикреплять файлы к сообщениям
Вы можете скачивать файлы
Анализ сайта korsars.info Яндекс.Метрика