Проклятие «Мэри» / Mary (2019) BDRip-AVC от OlLanDGroup | iTunes

Ответить на тему
Статистика раздачи [Обновить пиров]
Размер:  1,59 GB   |    Зарегистрирован:  13 дней   |    .torrent скачан:  0 раз
Раздают:  29  [  0 KB/s  ]   Качают:  4  [  0 KB/s  ]   Подробная статистика пиров
 
   
 
 
Автор Сообщение

4udaki ®

Оффлайн



Пол: Мужской

Стаж: 5 лет 2 месяца

Наличие запрета:

Сообщений: 5548

Откуда: korsars.info

Отдача: 2 Mb/s

Загрузка: 20 Mb/s

Нажми

Создавать темы 13-Янв-2020 17:00

[Цитировать]

Проклятие «Мэри» / Mary
«Evil Lives Just Beneath the Surface»-

Год выпуска: 2019
Страна: США
Производство: Tucker Tooley Entertainment
Жанр: Ужасы
Режиссёр: Майкл Гои
В ролях: Гэри Олдман, Дженнифер Эспозито, Эмили Мортимер, Оуэн Тиг, Стефани Скотт, Майкл Лэндис, Мануэль Рульфо, Натали Жан, Хлоя Перрин, Клер Бирн, Кэтрин Келли
Перевод: Дублированный | [iTunes]
Субтитры: Английские (полные)
Реклама: Отсутствует
Описание: Морская полиция подбирает в открытом море выживших после пожара на прогулочной яхте — женщину средних лет Сару и двух её дочерей. Сара сразу сознаётся, что она сожгла судно, ведь, по её словам, у неё не было другого выхода — в яхте обитал злой дух. Всё началось с того, что её муж Дэвид купил на полицейском аукционе эту лодку, точно такую, какая была у его отца. Мужчина надеялся начать собственный бизнес, а яхта «Мэри» должна была стать счастливым билетом для него и его семьи.

Качество: BDRip-AVC | BDRemux | Mary.2019.BDREMUX.1080p.seleZen
Продолжительность: 01:24:27
Формат: MKV
Видео кодек: MPEG-4 AVC
Аудио кодек: AC3
Видео: 1024x428 (2.40:1), 23,976 fps, x264 ~1 856 kbps avg, 0.177 bit/pixel
Аудио #1: 48 kHz, AC3 Dolby Digital, 3/2 (L,C,R,l,r) + LFE ch, ~384.00 kbps avg | RUS (iTunes)
Аудио #2: 48 kHz, AC3 Dolby Digital, 3/2 (L,C,R,l,r) + LFE ch, ~448.00 kbps avg | ENG
Дата премьеры (мир): 23 августа 2019
Дата премьеры (РФ): 19 сентября 2019, «Пионер»
Цифровой релиз: 11 ноября 2019, «НД Плэй»

Релиз от:

MediaInfo

Общее
Уникальный идентификатор : 338893065887354683416091882216889280801 (0xFEF46E2BAA139D45D6E8A259643C6921)
Полное имя : F:OlLanDGroupMary.2019.BDRip(AVC).OllanDGroup.mkv
Формат : Matroska
Версия формата : Version 4 / Version 2
Размер файла : 1,59 Гбайт
Продолжительность : 1 ч. 24 м.
Общий поток : 2687 Кбит/сек
Название фильма : Mary 2019 #TorpedoUK#
Дата кодирования : UTC 2019-11-22 16:06:08
Программа кодирования : mkvmerge v29.0.0 ('Like It Or Not') 64-bit
Библиотека кодирования : libebml v1.3.6 + libmatroska v1.4.9
Видео
Идентификатор : 1
Формат : AVC
Формат/Информация : Advanced Video Codec
Профиль формата : [email protected]
Параметр CABAC формата : Да
Параметр ReFrames формата : 10 кадров
Идентификатор кодека : V_MPEG4/ISO/AVC
Продолжительность : 1 ч. 24 м.
Битрейт : 1856 Кбит/сек
Ширина : 1024 пикселя
Высота : 428 пикселей
Соотношение сторон : 2,40:1
Режим частоты кадров : Постоянный
Частота кадров : 23,976 (24000/1001) кадра/сек
Цветовое пространство : YUV
Субдискретизация насыщенности : 4:2:0
Битовая глубина : 8 бит
Тип развёртки : Прогрессивная
Бит/(Пиксели*Кадры) : 0.177
Размер потока : 1,09 Гбайт (69%)
Библиотека кодирования : x264 core 146 r2538 121396c
Настройки программы : cabac=1 / ref=10 / deblock=1:-3:-3 / analyse=0x3:0x113 / me=umh / subme=11 / psy=1 / psy_rd=1.00:0.03 / mixed_ref=1 / me_range=48 / chroma_me=1 / trellis=2 / 8x8dct=1 / cqm=0 / deadzone=21,11 / fast_pskip=1 / chroma_qp_offset=-6 / threads=6 / lookahead_threads=1 / sliced_threads=0 / nr=0 / decimate=1 / interlaced=0 / bluray_compat=0 / constrained_intra=0 / bframes=11 / b_pyramid=2 / b_adapt=2 / b_bias=0 / direct=3 / weightb=1 / open_gop=0 / weightp=2 / keyint=240 / keyint_min=23 / scenecut=40 / intra_refresh=0 / rc_lookahead=40 / rc=2pass / mbtree=0 / bitrate=1856 / ratetol=1.0 / qcomp=0.60 / qpmin=0 / qpmax=69 / qpstep=4 / cplxblur=20.0 / qblur=0.5 / vbv_maxrate=50000 / vbv_bufsize=62500 / nal_hrd=none / filler=0 / ip_ratio=1.40 / pb_ratio=1.30 / aq=1:1.00
Язык : English
Default : Да
Forced : Нет
Аудио #1
Идентификатор : 2
Формат : AC-3
Формат/Информация : Audio Coding 3
Расширение режима : CM (complete main)
Параметр Endianness формата : Big
Идентификатор кодека : A_AC3
Продолжительность : 1 ч. 24 м.
Вид битрейта : Постоянный
Битрейт : 384 Кбит/сек
Каналы : 6 каналов
Расположение каналов : Front: L C R, Side: L R, LFE
Частота : 48,0 КГц
Частота кадров : 31,250 кадров/сек (1536 spf)
Битовая глубина : 16 бит
Метод сжатия : С потерями
Размер потока : 232 Мбайт (14%)
Заголовок : DUB [iTunes]
Язык : Russian
Default : Да
Forced : Нет
Аудио #2
Идентификатор : 3
Формат : AC-3
Формат/Информация : Audio Coding 3
Расширение режима : CM (complete main)
Параметр Endianness формата : Big
Идентификатор кодека : A_AC3
Продолжительность : 1 ч. 24 м.
Вид битрейта : Постоянный
Битрейт : 448 Кбит/сек
Каналы : 6 каналов
Расположение каналов : Front: L C R, Side: L R, LFE
Частота : 48,0 КГц
Частота кадров : 31,250 кадров/сек (1536 spf)
Битовая глубина : 16 бит
Метод сжатия : С потерями
Размер потока : 271 Мбайт (17%)
Заголовок : [Original]
Язык : English
Default : Нет
Forced : Нет
Текст
Идентификатор : 4
Формат : UTF-8
Идентификатор кодека : S_TEXT/UTF8
Идентификатор кодека/Информация : UTF-8 Plain Text
Продолжительность : 1 ч. 16 м.
Битрейт : 42 бит/сек
Count of elements : 792
Размер потока : 23,6 Кбайт (0%)
Заголовок : Full
Язык : English
Default : Нет
Forced : Нет
Меню
00:00:00.000 : en:Chapter 1
00:10:13.279 : en:Chapter 2
00:21:38.422 : en:Chapter 3
00:32:06.967 : en:Chapter 4
00:41:11.552 : en:Chapter 5
00:51:35.092 : en:Chapter 6
01:01:38.028 : en:Chapter 7
01:17:30.855 : en:Chapter 8

Скриншоты

[korsars.info].t25620.torrent 
Торрент: Зарегистрирован [ 2020-01-13 17:00 ] · 2A3C0AE8D0573E3602327C1C5B26BF2DAD4D7F05

Скачать .torrent

Скачать .torrent

17 KB

Статус: проверено
.torrent скачан: 0 раз
Размер: 1,59 GB
Правила
Похожие темы

[Профиль] [ЛС]
Показать сообщения:    
Ответить на тему

Текущее время: 27-Янв 14:33

Часовой пояс: UTC + 4



Вы не можете начинать темы
Вы не можете отвечать на сообщения
Вы не можете редактировать свои сообщения
Вы не можете удалять свои сообщения
Вы не можете голосовать в опросах
Вы не можете прикреплять файлы к сообщениям
Вы можете скачивать файлы
Анализ сайта korsars.info Яндекс.Метрика